梦幻天堂·龙网

 找回密码
 立即注册
查看: 242|回复: 2

[1080p] [动作]嫌疑犯相册 Operation.Endgame.2010.1080p.BluRay.x264-7.95GB

[复制链接]

3431

主题

5523

帖子

1万

积分

龙网爱心高会

Rank: 18Rank: 18

积分
11046

龙网爱心勋章

发表于 2018-9-21 16:41:18 | 显示全部楼层 |阅读模式

◎译  名 嫌疑犯相册
◎片  名 Operation Endgame
◎年  代 2010
◎产  地 美国
◎类  别 剧情/动作/喜剧
◎语  言 英语
◎上映日期 2010-07-27
◎片  长 USA: 87 分钟
◎导  演 Fouad Mikati
◎主  演 Odette Yustman
      Maggie Q
      Adam Scott

◎简  介

  该片讲述的是两队ZF间谍之间展开的激烈斗争。
  幕后制作
  《嫌疑犯相册》最吸引人的莫过于强大的演员阵容,采用亚当-斯科特、杰弗里-塔伯这样的演员说明制片方显然不是要吸引主流观众,制片方相信该片是能够吸引到这些演员的忠实粉丝来观影的。除了文章一开始提到的几位演员之外,演员阵容中还有艾米莉-德瑞文(Emilie de Ravin)、乔-安德森(Joe Anderson)、艾伦-巴金(Ellen Barkin)、奥黛塔-雅丝曼(Odette Yustman)以及布兰登-T-杰克逊(Brandon T. Jackson)。姑且不论最终影片质量如何,就是为了如此强大的演员阵容也建议大家欣赏一下这部电影
  花絮
  ·编剧布莱恩·瓦塔纳贝透露,片中Maggie Q的角色原是为刘玉玲量身定做的。

Video
ID : 1
Format : AVC
Format/Info : Advanced Video Codec
Format profile : High@L4.1
Format settings : CABAC / 5 Ref Frames
Format settings, CABAC : Yes
Format settings, ReFrames : 5 frames
Codec ID : V_MPEG4/ISO/AVC
Duration : 1 h 22 min
Bit rate : 12.3 Mb/s
Width : 1 920 pixels
Height : 800 pixels
Display aspect ratio : 2.40:1
Frame rate mode : Constant
Frame rate : 23.976 FPS
Color space : YUV
Chroma subsampling : 4:2:0
Bit depth : 8 bits
Scan type : Progressive
Bits/(Pixel*Frame) : 0.335
Stream size : 6.92 GiB (87%)
Writing library : x264 core 104 r1677 19df41a
Encoding settings : cabac=1 / ref=5 / deblock=1:0:0 / analyse=0x3:0x133 / me=umh / subme=7 / psy=1 / psy_rd=1.00:0.00 / mixed_ref=1 / me_range=16 / chroma_me=1 / trellis=1 / 8x8dct=1 / cqm=0 / deadzone=21,11 / fast_pskip=0 / chroma_qp_offset=-2 / threads=12 / sliced_threads=0 / nr=0 / decimate=1 / interlaced=0 / constrained_intra=0 / bframes=3 / b_pyramid=2 / b_adapt=1 / b_bias=0 / direct=1 / weightb=1 / open_gop=0 / weightp=2 / keyint=250 / keyint_min=23 / scenecut=40 / intra_refresh=0 / rc_lookahead=40 / rc=2pass / mbtree=1 / bitrate=12343 / ratetol=1.0 / qcomp=0.60 / qpmin=10 / qpmax=51 / qpstep=4 / cplxblur=20.0 / qblur=0.5 / ip_ratio=1.40 / aq=1:1.00
Language : English
Default : Yes
Forced : No

Audio
ID : 2
Format : DTS
Format/Info : Digital Theater Systems
Muxing mode : Header stripping
Codec ID : A_DTS
Duration : 1 h 22 min
Bit rate mode : Constant
Bit rate : 1 510 kb/s
Channel(s) : 6 channels
Channel positions : Front: L C R, Side: L R, LFE
Sampling rate : 48.0 kHz
Frame rate : 93.750 FPS (512 SPF)
Bit depth : 24 bits
Compression mode : Lossy
Stream size : 887 MiB (11%)
Language : English
Default : Yes
Forced : No

Text
ID : 3
Format : UTF-8
Codec ID : S_TEXT/UTF8
Codec ID/Info : UTF-8 Plain Text
Title : English
Language : English
Default : Yes
Forced : No



本帖子中包含更多资源

您需要 登录 才可以下载或查看,没有帐号?立即注册

x

1

主题

1万

帖子

2万

积分

神界龙王

Rank: 30Rank: 30Rank: 30Rank: 30

积分
23009

龙网爱心勋章

发表于 2018-9-21 23:26:26 | 显示全部楼层
谢谢楼主发片

1

主题

2827

帖子

3862

积分

升龙霸·VIP

Rank: 22Rank: 22Rank: 22Rank: 22

积分
3862

龙网VIP·银星龙网VIP·银徽

发表于 2018-9-22 13:40:54 | 显示全部楼层

感谢楼主的分享
您需要登录后才可以回帖 登录 | 立即注册

本版积分规则

小黑屋|梦幻天堂·龙网

GMT+8, 2018-10-22 07:49 , Processed in 0.116874 second(s), 22 queries , Gzip On.

Powered by Discuz! X3.2

© 2001-2013 Comsenz Inc.

快速回复 返回顶部 返回列表