梦幻天堂·龙网

 找回密码
 立即注册
查看: 156|回复: 1

[1080p] [科幻]游侠索罗:星球大战 Solo.1080p.BluRay.x264.TrueHD.7.1.Atmos-自带中字/7GB

[复制链接]

3431

主题

5523

帖子

1万

积分

龙网爱心高会

Rank: 18Rank: 18

积分
11046

龙网爱心勋章

发表于 2018-9-21 16:43:03 | 显示全部楼层 |阅读模式

◎译  名 游侠索罗:星球大战外传/韩索罗:星球大战外传(港)/星球大战外传:游侠索罗/星球大战外传:索罗/星球大战韩·索罗外传/游侠索罗/韩索罗外传/星战外传2
◎片  名 Solo: A Star Wars Story
◎年  代 2018
◎产  地 美国
◎类  别 动作/科幻/冒险
◎语  言 英语
◎上映日期 2018-05-10(洛杉矶首映)/2018-05-25(美国)/2018-05-25(中国大陆)
◎片  长 135分钟
◎导  演 朗·霍华德 Ron Howard
◎主  演 阿尔登·埃伦瑞奇 Alden Ehrenreich
      艾米莉亚·克拉克 Emilia Clarke
      伍迪·哈里森 Woody Harrelson
      唐纳德·格洛弗 Donald Glover
      保罗·贝坦尼 Paul Bettany
      乔纳斯·索塔莫 Joonas Suotamo
      菲比·沃勒-布里奇 Phoebe Waller-Bridge
      沃维克·戴维斯 Warwick Davis
      坦迪·牛顿 Thandie Newton
      克林特·霍华德 Clint Howard
      伊安·肯尼 Ian Kenny
      理查德·迪克森 Richard Dixon

◎简  介

  在《游侠索罗》(暂译)中,影迷们将跟随“千年隼号”及银河系中最受爱戴的“恶棍”韩·索罗,迎来全新的银河系探险旅程。经过在黑暗危险的罪犯地下社会中的重重冒险,韩·索罗遇见了他未来强大的副驾驶丘巴卡、以及臭名昭著的赌徒兰多·卡瑞辛,共同展开了一场星战传奇中最不“正统”的英雄历程。


Video
ID : 1
Format : AVC
Format/Info : Advanced Video Codec
Format profile : High@L4.1
Format settings : CABAC / 5 Ref Frames
Format settings, CABAC : Yes
Format settings, ReFrames : 5 frames
Codec ID : V_MPEG4/ISO/AVC
Duration : 2 h 14 min
Bit rate : 13.3 Mb/s
Width : 1 920 pixels
Height : 804 pixels
Display aspect ratio : 2.40:1
Frame rate mode : Constant
Frame rate : 23.976 (24000/1001) FPS
Color space : YUV
Chroma subsampling : 4:2:0
Bit depth : 8 bits
Scan type : Progressive
Bits/(Pixel*Frame) : 0.359
Stream size : 12.5 GiB (70%)
Title : Solo.A.Star.Wars.Story.2018.1080p.BluRay.x264.TrueHD.7.1.Atmos-SWTYBLZ
Writing library : x264 core 155 r2901 7d0ff22
Encoding settings : cabac=1 / ref=5 / deblock=1:-1:-1 / analyse=0x3:0x133 / me=umh / subme=10 / psy=1 / psy_rd=1.00:0.15 / mixed_ref=1 / me_range=48 / chroma_me=1 / trellis=2 / 8x8dct=1 / cqm=0 / deadzone=21,11 / fast_pskip=1 / chroma_qp_offset=-3 / threads=25 / lookahead_threads=4 / sliced_threads=0 / nr=0 / decimate=0 / interlaced=0 / bluray_compat=0 / constrained_intra=0 / bframes=8 / b_pyramid=2 / b_adapt=2 / b_bias=0 / direct=3 / weightb=1 / open_gop=0 / weightp=2 / keyint=250 / keyint_min=23 / scenecut=40 / intra_refresh=0 / rc_lookahead=60 / rc=crf / mbtree=1 / crf=13.0 / qcomp=0.60 / qpmin=0 / qpmax=69 / qpstep=4 / ip_ratio=1.40 / aq=1:1.00
Language : English
Default : Yes
Forced : No

Audio #1
ID : 2
Format : TrueHD
Format profile : TrueHD+Atmos / TrueHD
Codec ID : A_TRUEHD
Duration : 2 h 14 min
Bit rate mode : Variable
Bit rate : 4 981 kb/s
Maximum bit rate : 4 647 kb/s
Channel(s) : Object Based / 8 channels
Channel positions : Object Based / Front: L C R, Side: L R, Back: L R, LFE
Sampling rate : / 48.0 kHz
Frame rate : 1 200.000 FPS (40 SPF)
Compression mode : Lossless
Stream size : 4.69 GiB (26%)
Title : Solo.A.Star.Wars.Story.2018.1080p.BluRay.x264.TrueHD.7.1.Atmos-SWTYBLZ
Language : English
Default : Yes
Forced : No

Audio #2
ID : 3
Format : AC-3
Format/Info : Audio Coding 3
Codec ID : A_AC3
Duration : 2 h 14 min
Bit rate mode : Constant
Bit rate : 640 kb/s
Channel(s) : 6 channels
Channel positions : Front: L C R, Side: L R, LFE
Sampling rate : 48.0 kHz
Frame rate : 31.250 FPS (1536 SPF)
Bit depth : 16 bits
Compression mode : Lossy
Stream size : 617 MiB (3%)
Title : Solo.A.Star.Wars.Story.2018.1080p.BluRay.x264.TrueHD.7.1.Atmos-SWTYBLZ
Language : English
Service kind : Complete Main
Default : No
Forced : No

Text #1
ID : 4
Format : UTF-8
Codec ID : S_TEXT/UTF8
Codec ID/Info : UTF-8 Plain Text
Duration : 1 h 17 min
Bit rate : 0 b/s
Count of elements : 16
Stream size : 362 Bytes (0%)
Title : English-FORCED-SRT
Language : English
Default : Yes
Forced : No

Text #2
ID : 5
Format : UTF-8
Codec ID : S_TEXT/UTF8
Codec ID/Info : UTF-8 Plain Text
Duration : 2 h 5 min
Bit rate : 55 b/s
Count of elements : 1960
Stream size : 50.8 KiB (0%)
Title : English-SRT
Language : English
Default : No
Forced : No

Text #3
ID : 6
Format : UTF-8
Codec ID : S_TEXT/UTF8
Codec ID/Info : UTF-8 Plain Text
Duration : 2 h 5 min
Bit rate : 62 b/s
Count of elements : 2248
Stream size : 57.8 KiB (0%)
Title : English-SDH-SRT
Language : English
Default : No
Forced : No

Text #4
ID : 7
Format : PGS
Muxing mode : zlib
Codec ID : S_HDMV/PGS
Codec ID/Info : Picture based subtitle format used on BDs/HD-DVDs
Duration : 2 h 5 min
Bit rate : 42.1 kb/s
Count of elements : 4496
Stream size : 37.7 MiB (0%)
Title : English-PGS
Language : English
Default : No
Forced : No

Text #5
ID : 8
Format : PGS
Muxing mode : zlib
Codec ID : S_HDMV/PGS
Codec ID/Info : Picture based subtitle format used on BDs/HD-DVDs
Duration : 2 h 7 min
Bit rate : 31.6 kb/s
Count of elements : 3688
Stream size : 28.8 MiB (0%)
Title : French-PGS
Language : French
Default : No
Forced : No

Text #6
ID : 9
Format : PGS
Muxing mode : zlib
Codec ID : S_HDMV/PGS
Codec ID/Info : Picture based subtitle format used on BDs/HD-DVDs
Duration : 2 h 7 min
Bit rate : 33.8 kb/s
Count of elements : 3672
Stream size : 30.8 MiB (0%)
Title : Spanish-PGS
Language : Spanish
Default : No
Forced : No

Text #7
ID : 10
Format : PGS
Muxing mode : zlib
Codec ID : S_HDMV/PGS
Codec ID/Info : Picture based subtitle format used on BDs/HD-DVDs
Duration : 2 h 7 min
Bit rate : 18.2 kb/s
Count of elements : 3616
Stream size : 16.6 MiB (0%)
Title : Korean-PGS
Language : Korean
Default : No
Forced : No

Text #8
ID : 11
Format : PGS
Muxing mode : zlib
Codec ID : S_HDMV/PGS
Codec ID/Info : Picture based subtitle format used on BDs/HD-DVDs
Duration : 2 h 7 min
Bit rate : 24.6 kb/s
Count of elements : 3642
Stream size : 22.4 MiB (0%)
Title : Thai-PGS
Language : Thai
Default : No
Forced : No

Text #9
ID : 12
Format : PGS
Muxing mode : zlib
Codec ID : S_HDMV/PGS
Codec ID/Info : Picture based subtitle format used on BDs/HD-DVDs
Duration : 2 h 7 min
Bit rate : 20.6 kb/s
Count of elements : 3640
Stream size : 18.8 MiB (0%)
Title : Chinese-PGS
Language : Chinese
Default : No
Forced : No

Text #10
ID : 13
Format : PGS
Muxing mode : zlib
Codec ID : S_HDMV/PGS
Codec ID/Info : Picture based subtitle format used on BDs/HD-DVDs
Duration : 2 h 7 min
Bit rate : 23.8 kb/s
Count of elements : 3642
Stream size : 21.7 MiB (0%)
Title : Chinese-PGS
Language : Chinese
Default : No
Forced : No




本帖子中包含更多资源

您需要 登录 才可以下载或查看,没有帐号?立即注册

x

1

主题

1万

帖子

2万

积分

神界龙王

Rank: 30Rank: 30Rank: 30Rank: 30

积分
23009

龙网爱心勋章

发表于 2018-9-21 23:26:09 | 显示全部楼层
谢谢楼主发片
您需要登录后才可以回帖 登录 | 立即注册

本版积分规则

小黑屋|梦幻天堂·龙网

GMT+8, 2018-10-22 07:39 , Processed in 0.135117 second(s), 22 queries , Gzip On.

Powered by Discuz! X3.2

© 2001-2013 Comsenz Inc.

快速回复 返回顶部 返回列表