梦幻天堂·龙网

 找回密码
 立即注册
查看: 641|回复: 3

[1080p] [科幻]三叠纪世界 .2018.1080p.BluRay.REMUX.AVC.DTS-HD.MA.5.1-FGT 18GB

[复制链接]

3431

主题

5523

帖子

1万

积分

龙网爱心高会

Rank: 18Rank: 18

积分
11046

龙网爱心勋章

发表于 2018-9-24 21:02:51 | 显示全部楼层 |阅读模式


◎译  名 三叠纪世界/侏儸紀世界:三疊紀國度(台)
◎片  名 Triassic World
◎年  代 2018
◎产  地 美国
◎类  别 动作/科幻/恐怖
◎语  言 英语
◎上映日期 2018-06-19(美国)
◎IMDb评分  3.1/10 from 173 users
◎IMDb链接  http://www.imdb.com/title/tt8128866/
◎片  长 89分钟
◎导  演 Dylan Vox
◎主  演 Joseph Michael Harris
      Joel Berti

◎简  介

  當科學家創造出新品種恐龍用來培養人體器官,然而一場意外卻讓這群遠古生物脫逃而出,創造牠們的科學家此時必須竭力反擊,才有機會逃過這場末日浩劫!

Video
ID : 1
Format : AVC
Format/Info : Advanced Video Codec
Format profile : High@L4.1
Format settings : CABAC / 4 Ref Frames
Format settings, CABAC : Yes
Format settings, ReFrames : 4 frames
Codec ID : V_MPEG4/ISO/AVC
Duration : 1 h 29 min
Bit rate mode : Variable
Bit rate : 24.0 Mb/s
Maximum bit rate : 34.0 Mb/s
Width : 1 920 pixels
Height : 1 080 pixels
Display aspect ratio : 16:9
Frame rate mode : Constant
Frame rate : 23.976 (24000/1001) FPS
Standard : NTSC
Color space : YUV
Chroma subsampling : 4:2:0
Bit depth : 8 bits
Scan type : Progressive
Bits/(Pixel*Frame) : 0.483
Stream size : 14.9 GiB (82%)
Title : Triassic.World.2018.1080p.BluRay.REMUX.AVC.DTS-HD.MA.5.1-FGT
Language : English
Default : No
Forced : No
Color range : Limited
Color primaries : BT.709
Transfer characteristics : BT.709
Matrix coefficients : BT.709

Audio #1
ID : 2
Format : DTS
Format/Info : Digital Theater Systems
Format profile : MA / Core
Codec ID : A_DTS
Duration : 1 h 29 min
Bit rate mode : Variable / Constant
Bit rate : 3 929 kb/s / 1 509 kb/s
Channel(s) : 6 channels
Channel positions : Front: L C R, Side: L R, LFE
Sampling rate : 48.0 kHz
Frame rate : 93.750 FPS (512 SPF)
Bit depth : 24 bits
Compression mode : Lossless / Lossy
Stream size : 2.45 GiB (13%)
Title : Triassic.World.2018.1080p.BluRay.REMUX.AVC.DTS-HD.MA.5.1-FGT
Language : English
Default : Yes
Forced : No

Audio #2
ID : 3
Format : DTS
Format/Info : Digital Theater Systems
Codec ID : A_DTS
Duration : 1 h 29 min
Bit rate mode : Constant
Bit rate : 1 509 kb/s
Channel(s) : 6 channels
Channel positions : Front: L C R, Side: L R, LFE
Sampling rate : 48.0 kHz
Frame rate : 93.750 FPS (512 SPF)
Bit depth : 24 bits
Compression mode : Lossy
Stream size : 962 MiB (5%)
Title : Triassic.World.2018.1080p.BluRay.REMUX.AVC.DTS-HD.MA.5.1-FGT
Language : English
Default : No
Forced : No

Menu
00:00:00.000 : en:Chapter 01
00:10:00.224 : en:Chapter 02
00:20:01.158 : en:Chapter 03
00:30:01.800 : en:Chapter 04
00:40:02.400 : en:Chapter 05
00:50:03.000 : en:Chapter 06
01:00:03.474 : en:Chapter 07
01:10:04.200 : en:Chapter 08
01:20:04.591 : en:Chapter 09


本帖子中包含更多资源

您需要 登录 才可以下载或查看,没有帐号?立即注册

x

1

主题

4221

帖子

5880

积分

海龙王

Rank: 25Rank: 25Rank: 25Rank: 25Rank: 25

积分
5880
发表于 2018-9-26 21:35:00 | 显示全部楼层
各种新事物竞相出现

1

主题

1万

帖子

2万

积分

神界龙王

Rank: 30Rank: 30Rank: 30Rank: 30

积分
23009

龙网爱心勋章

发表于 2018-9-27 21:50:01 | 显示全部楼层
谢谢楼主发片

1

主题

2827

帖子

3862

积分

升龙霸·VIP

Rank: 22Rank: 22Rank: 22Rank: 22

积分
3862

龙网VIP·银星龙网VIP·银徽

发表于 2018-10-3 17:41:28 | 显示全部楼层

感谢楼主分享
您需要登录后才可以回帖 登录 | 立即注册

本版积分规则

小黑屋|梦幻天堂·龙网

GMT+8, 2018-10-22 07:40 , Processed in 0.127642 second(s), 22 queries , Gzip On.

Powered by Discuz! X3.2

© 2001-2013 Comsenz Inc.

快速回复 返回顶部 返回列表