梦幻天堂·龙网

 找回密码
 立即注册
查看: 18276|回复: 183

[最新电影龙网转发] 【龙网转发】【中国2022票房爆笑】【这个杀手不太冷静】【WebDL-2160p.MKV】【国语】

  [复制链接]

2841

主题

3万

帖子

7万

积分

九鼎龙王·坛主

偶系漂漂滴龙民

Rank: 46Rank: 46Rank: 46Rank: 46Rank: 46Rank: 46

积分
75886

航子大神勋章

发表于 2022-4-21 20:17:56 | 显示全部楼层 |阅读模式
海报:





译  名 这个杀手不太冷静
片  名 Too Cool To Kill
年  代 2022
国  家 中国
类  别 喜剧
语  言 汉语普通话
字  幕 中英硬字幕
评  分 6.3/10 from 395,368 users
链  接 https://movie.douban.com/subject/35505100
文件大小 4.64 GB
片  长 109 Min
导  演 邢文雄 Wenxiong Xing
主  演 马丽 Li Ma
     魏翔 Xiang Wei
     陈明昊 Minghao Chen
     周大勇 Dayong Zhou
     黄才伦 Cailun Huang
     艾伦 Allen
     高海宝 Haibao Gao
     韩笑 Xiao Han
     孙贵权 Guiquan Sun
     许猛 Meng Xu
     全容杓 Rongbiao Quan

简介:

  魏成功(魏翔 饰)非常热爱表演,然而其貌不扬的他往往只能够在电影里觅得一个跑龙套的角色,可即便如此,魏成功还是无比认真的对待着自己的每一个甚至连名字都没有的角色,这股子劲头引起了当红女明星米兰(马丽 饰)的注意。

  米兰的弟弟米勒(黄才伦 饰)是一名电影导演,黑帮大佬哈维(陈明昊 饰)给他的电影投资了不菲的资金,哪知道亏得底裤都不剩,哈维一直爱慕着米兰,想要娶她为妻,可是米兰誓死不从。这一天,当哈维决定和姐弟两算总账之际,米兰告诉哈维自己认识他一直想要寻找的杀手卡尔(艾伦 饰)。哈维给了米兰一天的时间,让他把卡尔带到自己面前,实际上并不认识卡尔的米兰决定让魏成功来扮演这位冷酷的杀手。

Video
Format                         : HEVC
Format/Info                    : High Efficiency Video Coding
Format profile                 : Main 10 @ L5.1 @ Main
Codec ID                       : V_MPEGH/ISO/HEVC
Duration                       : 1 h 49 min
Bit rate                       : 5 645 kb/s
Width                          : 3 840 pixels
Height                         : 1 608 pixels
Display aspect ratio           : 2.40:1
Frame rate mode                : Constant
Frame rate                     : 60.000 FPS
Color space                    : YUV
Chroma subsampling             : 4:2:0
Bit depth                      : 10 bits
Bits/(Pixel*Frame)             : 0.015
Stream size                    : 4.30 GiB (93%)
Color range                    : Limited
Color primaries                : BT.709
Transfer characteristics       : BT.709
Matrix coefficients            : BT.709

Audio
Format                         : E-AC-3 JOC
Format/Info                    : Enhanced AC-3 with Joint Object Coding
Commercial name                : Dolby Digital Plus with Dolby Atmos
Codec ID                       : A_EAC3
Duration                       : 1 h 49 min
Bit rate mode                  : Constant
Bit rate                       : 448 kb/s
Channel(s)                     : 6 channels
Channel layout                 : L R C LFE Ls Rs
Sampling rate                  : 48.0 kHz
Frame rate                     : 31.250 FPS (1536 SPF)
Compression mode               : Lossy
Stream size                    : 350 MiB (7%)
Service kind                   : Complete Main
Complexity index               : 16
Number of dynamic objects      : 15
Bed channel count              : 1 channel
Bed channel configuration      : LFE

截图:




BT种子下载:
梦幻天堂·龙网(www.LWgod.org).这个杀手不太冷静.torrent (24.47 KB, 下载次数: 7489)

2841

主题

3万

帖子

7万

积分

九鼎龙王·坛主

偶系漂漂滴龙民

Rank: 46Rank: 46Rank: 46Rank: 46Rank: 46Rank: 46

积分
75886

航子大神勋章

 楼主| 发表于 2022-4-21 20:19:33 | 显示全部楼层
  1. 【龙网转发】【中国2022票房爆笑】【这个杀手不太冷静】【WebDL-2160p.MKV】【国语】
复制代码

  1. 海报:

  2. [img]https://img.longwangbt.com/-10-/04.21/z/00.jpg[/img]

  3. [img]https://img.longwangbt.com/-10-/04.21/z/01.jpg[/img]

  4. 译  名 这个杀手不太冷静
  5. 片  名 Too Cool To Kill
  6. 年  代 2022
  7. 国  家 中国
  8. 类  别 喜剧
  9. 语  言 汉语普通话
  10. 字  幕 中英硬字幕
  11. 评  分 6.3/10 from 395,368 users
  12. 链  接 [url=http://www.lwgod.org]https://movie.douban.com/subject/35505100[/url]
  13. 文件大小 4.64 GB
  14. 片  长 109 Min
  15. 导  演 邢文雄 Wenxiong Xing
  16. 主  演 马丽 Li Ma
  17.      魏翔 Xiang Wei
  18.      陈明昊 Minghao Chen
  19.      周大勇 Dayong Zhou
  20.      黄才伦 Cailun Huang
  21.      艾伦 Allen
  22.      高海宝 Haibao Gao
  23.      韩笑 Xiao Han
  24.      孙贵权 Guiquan Sun
  25.      许猛 Meng Xu
  26.      全容杓 Rongbiao Quan

  27. 简介:

  28.   魏成功(魏翔 饰)非常热爱表演,然而其貌不扬的他往往只能够在电影里觅得一个跑龙套的角色,可即便如此,魏成功还是无比认真的对待着自己的每一个甚至连名字都没有的角色,这股子劲头引起了当红女明星米兰(马丽 饰)的注意。

  29.   米兰的弟弟米勒(黄才伦 饰)是一名电影导演,黑帮大佬哈维(陈明昊 饰)给他的电影投资了不菲的资金,哪知道亏得底裤都不剩,哈维一直爱慕着米兰,想要娶她为妻,可是米兰誓死不从。这一天,当哈维决定和姐弟两算总账之际,米兰告诉哈维自己认识他一直想要寻找的杀手卡尔(艾伦 饰)。哈维给了米兰一天的时间,让他把卡尔带到自己面前,实际上并不认识卡尔的米兰决定让魏成功来扮演这位冷酷的杀手。

  30. [quote][size=2]Video
  31. Format                         : HEVC
  32. Format/Info                    : High Efficiency Video Coding
  33. Format profile                 : Main 10 @ L5.1 @ Main
  34. Codec ID                       : V_MPEGH/ISO/HEVC
  35. Duration                       : 1 h 49 min
  36. Bit rate                       : 5 645 kb/s
  37. Width                          : 3 840 pixels
  38. Height                         : 1 608 pixels
  39. Display aspect ratio           : 2.40:1
  40. Frame rate mode                : Constant
  41. Frame rate                     : 60.000 FPS
  42. Color space                    : YUV
  43. Chroma subsampling             : 4:2:0
  44. Bit depth                      : 10 bits
  45. Bits/(Pixel*Frame)             : 0.015
  46. Stream size                    : 4.30 GiB (93%)
  47. Color range                    : Limited
  48. Color primaries                : BT.709
  49. Transfer characteristics       : BT.709
  50. Matrix coefficients            : BT.709

  51. Audio
  52. Format                         : E-AC-3 JOC
  53. Format/Info                    : Enhanced AC-3 with Joint Object Coding
  54. Commercial name                : Dolby Digital Plus with Dolby Atmos
  55. Codec ID                       : A_EAC3
  56. Duration                       : 1 h 49 min
  57. Bit rate mode                  : Constant
  58. Bit rate                       : 448 kb/s
  59. Channel(s)                     : 6 channels
  60. Channel layout                 : L R C LFE Ls Rs
  61. Sampling rate                  : 48.0 kHz
  62. Frame rate                     : 31.250 FPS (1536 SPF)
  63. Compression mode               : Lossy
  64. Stream size                    : 350 MiB (7%)
  65. Service kind                   : Complete Main
  66. Complexity index               : 16
  67. Number of dynamic objects      : 15
  68. Bed channel count              : 1 channel
  69. Bed channel configuration      : LFE[/size][/quote]
  70. 截图:

  71. [img]https://img.longwangbt.com/-10-/04.21/z/02.jpg[/img]
复制代码

0

主题

104

帖子

2005

积分

升龙霸·VIP

Rank: 22Rank: 22Rank: 22Rank: 22

积分
2005

龙网爱心勋章龙网VIP·银章

发表于 2022-4-21 20:40:57 | 显示全部楼层
{:4_136:}{:4_136:}{:4_136:}

0

主题

234

帖子

680

积分

龙的传人

Rank: 13Rank: 13Rank: 13

积分
680
发表于 2022-4-21 20:49:27 | 显示全部楼层
恢复更新,撒花庆祝!

0

主题

29

帖子

507

积分

龙的传人

Rank: 13Rank: 13Rank: 13

积分
507
发表于 2022-4-21 20:57:18 | 显示全部楼层
恢复更新,撒花庆祝!
我可以回忆的人很多,是因为我失去得太多了。

1

主题

399

帖子

3477

积分

升龙霸·VIP

Rank: 22Rank: 22Rank: 22Rank: 22

积分
3477

赞助会员 LV2龙网爱心勋章

QQ
发表于 2022-4-21 21:14:15 | 显示全部楼层
恢复更新,撒花庆祝!

0

主题

25

帖子

1325

积分

神龙

Rank: 15Rank: 15Rank: 15

积分
1325
发表于 2022-4-21 21:22:37 | 显示全部楼层
好激动💗,终于更新了

0

主题

57

帖子

546

积分

龙的传人

Rank: 13Rank: 13Rank: 13

积分
546
发表于 2022-4-21 21:57:05 | 显示全部楼层
恢复更新,撒花庆祝!

2

主题

30

帖子

226

积分

升龙霸·VIP

Rank: 22Rank: 22Rank: 22Rank: 22

积分
226

龙网VIP·银牌

发表于 2022-4-21 22:02:09 | 显示全部楼层
终于更新了{:4_130:}

3

主题

39

帖子

438

积分

升龙霸·VIP

Rank: 22Rank: 22Rank: 22Rank: 22

积分
438

龙网VIP·金牌

发表于 2022-4-21 22:02:47 | 显示全部楼层
竟然有4K的资源了,谢谢航子,欢迎回归

0

主题

351

帖子

1895

积分

神龙

Rank: 15Rank: 15Rank: 15

积分
1895
发表于 2022-4-21 22:03:40 | 显示全部楼层
终于更新了,谢谢分享

0

主题

325

帖子

614

积分

龙的传人

Rank: 13Rank: 13Rank: 13

积分
614
发表于 2022-4-21 22:48:26 | 显示全部楼层
666666666{:4_123:}{:4_123:}

0

主题

408

帖子

3387

积分

赤血神龙

Rank: 20Rank: 20Rank: 20Rank: 20

积分
3387
发表于 2022-4-21 22:55:06 | 显示全部楼层
楼主辛苦,多谢分享。

0

主题

210

帖子

366

积分

龙少爷

Rank: 10Rank: 10

积分
366
发表于 2022-4-21 23:07:21 | 显示全部楼层
航子女神好

0

主题

860

帖子

1334

积分

升龙霸·VIP

Rank: 22Rank: 22Rank: 22Rank: 22

积分
1334

赞助会员 LV1

发表于 2022-4-21 23:14:09 | 显示全部楼层
感谢楼主分享好东西
您需要登录后才可以回帖 登录 | 立即注册

本版积分规则

小黑屋|梦幻天堂·龙网

GMT+8, 2024-4-22 22:55 , Processed in 0.377999 second(s), 28 queries , Gzip On.

Powered by Discuz! X3.2

© 2001-2013 Comsenz Inc.

快速回复 返回顶部 返回列表