梦幻天堂·龙网

 找回密码
 立即注册
查看: 23378|回复: 159

[最新电影龙网转发] 【龙网转发】【中国2021万众期待票房剧情犯罪】【误杀2】【WebDL-2160p.MKV】【国语】

  [复制链接]

2914

主题

3万

帖子

7万

积分

九鼎龙王·坛主

偶系漂漂滴龙民

Rank: 46Rank: 46Rank: 46Rank: 46Rank: 46Rank: 46

积分
76126

航子大神勋章

发表于 2022-5-12 17:15:09 | 显示全部楼层 |阅读模式
海报





译  名 误杀2
片  名 Fireflies in the Sun
年  代 2021
国  家 中国
类  别 剧情/犯罪
语  言 汉语普通话
字  幕 中英硬字幕
评  分 5.7/10 from 313,409 users
链  接 https://movie.douban.com/subject/35068653
文件大小 9.47 GB
片  长 118 Min
导  演 戴墨 Mo Dai
主  演 肖央 Yang Xiao
     任达华 Simon Yam
     文咏珊 Janice Man
     陈雨锶 Yusi Chen
     宋洋 Yang Song
     李治廷 Aarif Lee
     张世 Shih Chang
     尹子维 Terence Yin
     姜皓文 Philip Keung
     陈昊 Hao Chen
     周楚濋 Chu-chu Zhou
     王昊泽 Haoze Wang

简介

  林日朗(肖央 饰)与妻子阿玲(文咏珊 饰)、儿子小虫(王昊泽 饰)一直过着清贫但幸福的生活,直到儿子小虫突发意外急需救治,几经周折,走投无路的林日朗为了救儿子决定放手一搏。他制定了一个惊天计划.....

  本片改编自电影《迫在眉梢》。

Video
Format                         : HEVC
Format/Info                    : High Efficiency Video Coding
Format profile                 : Main @ L5 @ Main
Codec ID                       : V_MPEGH/ISO/HEVC
Duration                       : 1 h 58 min
Bit rate                       : 11.0 Mb/s
Width                          : 3 840 pixels
Height                         : 1 608 pixels
Display aspect ratio           : 2.40:1
Frame rate mode                : Constant
Frame rate                     : 24.000 FPS
Color space                    : YUV
Chroma subsampling             : 4:2:0
Bit depth                      : 8 bits
Bits/(Pixel*Frame)             : 0.074
Stream size                    : 9.10 GiB (96%)

Audio
Format                         : E-AC-3 JOC
Format/Info                    : Enhanced AC-3 with Joint Object Coding
Commercial name                : Dolby Digital Plus with Dolby Atmos
Codec ID                       : A_EAC3
Duration                       : 1 h 58 min
Bit rate mode                  : Constant
Bit rate                       : 448 kb/s
Channel(s)                     : 6 channels
Channel layout                 : L R C LFE Ls Rs
Sampling rate                  : 48.0 kHz
Frame rate                     : 31.250 FPS (1536 SPF)
Compression mode               : Lossy
Stream size                    : 380 MiB (4%)
Service kind                   : Complete Main
Complexity index               : 16
Number of dynamic objects      : 15
Bed channel count              : 1 channel
Bed channel configuration      : LFE

截图




BT种子下载
梦幻天堂·龙网(www.LWgod.org).误杀2.torrent (48.6 KB, 下载次数: 7298)

2914

主题

3万

帖子

7万

积分

九鼎龙王·坛主

偶系漂漂滴龙民

Rank: 46Rank: 46Rank: 46Rank: 46Rank: 46Rank: 46

积分
76126

航子大神勋章

 楼主| 发表于 2022-5-12 17:34:11 | 显示全部楼层
  1. 【龙网转发】【中国2021万众期待票房剧情犯罪】【误杀2】【WebDL-2160p.MKV】【国语】
复制代码

  1. 海报

  2. [img]https://img.longwangbt.com/-10-/05.12/w/00.jpg[/img]

  3. [img]https://img.longwangbt.com/-10-/05.12/w/01.jpg[/img]

  4. 译  名 误杀2
  5. 片  名 Fireflies in the Sun
  6. 年  代 2021
  7. 国  家 中国
  8. 类  别 剧情/犯罪
  9. 语  言 汉语普通话
  10. 字  幕 中英硬字幕
  11. 评  分 5.7/10 from 313,409 users
  12. 链  接 [url=http://www.lwgod.org]https://movie.douban.com/subject/35068653[/url]
  13. 文件大小 9.47 GB
  14. 片  长 118 Min
  15. 导  演 戴墨 Mo Dai
  16. 主  演 肖央 Yang Xiao
  17.      任达华 Simon Yam
  18.      文咏珊 Janice Man
  19.      陈雨锶 Yusi Chen
  20.      宋洋 Yang Song
  21.      李治廷 Aarif Lee
  22.      张世 Shih Chang
  23.      尹子维 Terence Yin
  24.      姜皓文 Philip Keung
  25.      陈昊 Hao Chen
  26.      周楚濋 Chu-chu Zhou
  27.      王昊泽 Haoze Wang

  28. 简介

  29.   林日朗(肖央 饰)与妻子阿玲(文咏珊 饰)、儿子小虫(王昊泽 饰)一直过着清贫但幸福的生活,直到儿子小虫突发意外急需救治,几经周折,走投无路的林日朗为了救儿子决定放手一搏。他制定了一个惊天计划.....

  30.   本片改编自电影《迫在眉梢》。

  31. [quote][size=2]Video
  32. Format                         : HEVC
  33. Format/Info                    : High Efficiency Video Coding
  34. Format profile                 : Main @ L5 @ Main
  35. Codec ID                       : V_MPEGH/ISO/HEVC
  36. Duration                       : 1 h 58 min
  37. Bit rate                       : 11.0 Mb/s
  38. Width                          : 3 840 pixels
  39. Height                         : 1 608 pixels
  40. Display aspect ratio           : 2.40:1
  41. Frame rate mode                : Constant
  42. Frame rate                     : 24.000 FPS
  43. Color space                    : YUV
  44. Chroma subsampling             : 4:2:0
  45. Bit depth                      : 8 bits
  46. Bits/(Pixel*Frame)             : 0.074
  47. Stream size                    : 9.10 GiB (96%)

  48. Audio
  49. Format                         : E-AC-3 JOC
  50. Format/Info                    : Enhanced AC-3 with Joint Object Coding
  51. Commercial name                : Dolby Digital Plus with Dolby Atmos
  52. Codec ID                       : A_EAC3
  53. Duration                       : 1 h 58 min
  54. Bit rate mode                  : Constant
  55. Bit rate                       : 448 kb/s
  56. Channel(s)                     : 6 channels
  57. Channel layout                 : L R C LFE Ls Rs
  58. Sampling rate                  : 48.0 kHz
  59. Frame rate                     : 31.250 FPS (1536 SPF)
  60. Compression mode               : Lossy
  61. Stream size                    : 380 MiB (4%)
  62. Service kind                   : Complete Main
  63. Complexity index               : 16
  64. Number of dynamic objects      : 15
  65. Bed channel count              : 1 channel
  66. Bed channel configuration      : LFE[/size][/quote]
  67. 截图

  68. [img]https://img.longwangbt.com/-10-/05.12/w/02.jpg[/img]
复制代码

1

主题

810

帖子

2684

积分

赤血神龙

Rank: 20Rank: 20Rank: 20Rank: 20

积分
2684
QQ
发表于 2022-5-12 19:31:39 | 显示全部楼层
等下这个好久了,感谢

1

主题

685

帖子

1096

积分

神龙

Rank: 15Rank: 15Rank: 15

积分
1096
发表于 2022-5-12 19:37:05 | 显示全部楼层
我也是一个渴望权利和成功的女孩

1

主题

1508

帖子

4542

积分

赤血神龙

Rank: 20Rank: 20Rank: 20Rank: 20

积分
4542
QQ
发表于 2022-5-12 20:38:27 | 显示全部楼层
tks for share........

1

主题

4700

帖子

6563

积分

海龙王

Rank: 25Rank: 25Rank: 25Rank: 25Rank: 25

积分
6563
发表于 2022-5-12 20:50:58 | 显示全部楼层
感谢楼主分享!!!!!

467

主题

2万

帖子

2万

积分

神界龙王

Rank: 30Rank: 30Rank: 30Rank: 30

积分
27978

龙网爱心勋章

发表于 2022-5-12 20:54:33 | 显示全部楼层
感谢楼主分享!!!!!

0

主题

328

帖子

652

积分

龙的传人

Rank: 13Rank: 13Rank: 13

积分
652
发表于 2022-5-12 21:17:50 | 显示全部楼层
hummer0925 发表于 2022-5-12 19:37
我也是一个渴望权利和成功的女孩

66666666666666

1

主题

1万

帖子

2万

积分

神界龙王

Rank: 30Rank: 30Rank: 30Rank: 30

积分
21990

龙网爱心勋章

发表于 2022-5-12 21:35:50 | 显示全部楼层

楼主分享美图!
笑看红尘

0

主题

482

帖子

741

积分

龙的传人

Rank: 13Rank: 13Rank: 13

积分
741
发表于 2022-5-12 22:24:30 | 显示全部楼层
肖央有阴谋家的潜质

0

主题

408

帖子

3387

积分

赤血神龙

Rank: 20Rank: 20Rank: 20Rank: 20

积分
3387
发表于 2022-5-12 22:44:55 | 显示全部楼层
楼主辛苦,多谢分享。
头像被屏蔽

0

主题

8466

帖子

1万

积分

禁止发言

积分
12483
发表于 2022-5-12 23:00:37 | 显示全部楼层
提示: 作者被禁止或删除 内容自动屏蔽

0

主题

3732

帖子

5229

积分

升龙霸·VIP

Rank: 22Rank: 22Rank: 22Rank: 22

积分
5229

龙网VIP·银勋

发表于 2022-5-12 23:48:40 | 显示全部楼层
感谢航子分享!

1

主题

8966

帖子

1万

积分

神界龙王

Rank: 30Rank: 30Rank: 30Rank: 30

积分
13250
发表于 2022-5-12 23:57:20 | 显示全部楼层

感谢楼主分享

1

主题

1545

帖子

2722

积分

赤血神龙

Rank: 20Rank: 20Rank: 20Rank: 20

积分
2722
发表于 2022-5-13 02:27:30 | 显示全部楼层
感谢航子分享!
您需要登录后才可以回帖 登录 | 立即注册

本版积分规则

小黑屋|梦幻天堂·龙网

GMT+8, 2024-7-21 11:42 , Processed in 0.437792 second(s), 31 queries , Gzip On.

Powered by Discuz! X3.2

© 2001-2013 Comsenz Inc.

快速回复 返回顶部 返回列表