梦幻天堂·龙网

 找回密码
 立即注册
查看: 32575|回复: 177

[最新电影龙网转发] 【龙网转发】【美2022视效大片】【暗夜博士:莫比亚斯】【WebDL-1080p.MKV】【中字】

  [复制链接]

2841

主题

3万

帖子

7万

积分

九鼎龙王·坛主

偶系漂漂滴龙民

Rank: 46Rank: 46Rank: 46Rank: 46Rank: 46Rank: 46

积分
75886

航子大神勋章

发表于 2022-5-19 17:23:09 | 显示全部楼层 |阅读模式
海报





译  名 暗夜博士:莫比亚斯/魔比煞(港)/魔比斯(台)/莫比亚斯:暗夜博士/吸血鬼莫比亚斯
片  名 Morbius
年  代 2022
国  家 美国
类  别 动作/科幻/恐怖
语  言 英语
字  幕 中简/中繁/英文
评  分 5.7/10 from 14,972 users
链  接 https://movie.douban.com/subject/27199850
文件大小 6.25 GB
片  长 104 Min
导  演 丹尼尔·伊斯皮诺萨 Daniel Espinosa
主  演 杰瑞德·莱托 Jared Leto
     马特·史密斯 Matt Smith
     阿德里娅·阿霍纳 Adria Arjona
     杰瑞德·哈里斯 Jared Harris
     泰瑞斯·吉布森 Tyrese Gibson
     艾尔·马德里加尔 Al Madrigal
     迈克尔·基顿 Michael Keaton
     查理·肖特韦尔 Charlie Shotwell
     汤姆·福布斯 Tom Forbes
     克拉拉·罗萨杰 Clara Rosager
     克里·约翰逊 Corey Johnson

简介

  《暗夜博士:莫比亚斯》将首次把漫威宇宙中最另类的暗黑超级英雄莫比亚斯呈现于大银幕。由奥斯卡最佳男配得主杰瑞德·莱托饰演的莫比亚斯博士身患一种罕见的血液疾病,命不久矣的他决心找到治疗方法拯救其他同病患者。为此,他孤注一掷试图根除疾病。一开始一切似乎都成功了,但他的内心深处有一股黑暗却无端释放。善念能否压制住邪恶,还是莫比亚斯会屈服于这神秘的欲望?

  吸血鬼莫比亚斯本名迈克尔·莫比亚斯,是世界闻名的生物化学专家,诺贝尔奖的获得者,一个被荣誉包围的显赫人物,前途无量的他患上了一种罕见的血液疾病,为了治愈这种疾病,迈克尔博士利用吸血蝙蝠和电击进行实验性治疗,不料其副作用把他变成了一个为了生存需要不断吸食血液的“吸血鬼”,从此迈克尔博士自称吸血鬼莫比亚斯。

Video
Format                         : AVC
Format/Info                    : Advanced Video Codec
Format profile                 : High @ L4
Format settings                : CABAC / 4 Ref Frames
Format settings, CABAC         : Yes
Format settings, Reference fra : 4 frames
Codec ID                       : V_MPEG4/ISO/AVC
Duration                       : 1 h 44 min
Bit rate                       : 8 000 kb/s
Width                          : 1 920 pixels
Height                         : 1 080 pixels
Display aspect ratio           : 16:9
Frame rate mode                : Constant
Frame rate                     : 23.976 (24000/1001) FPS
Color space                    : YUV
Chroma subsampling             : 4:2:0
Bit depth                      : 8 bits
Scan type                      : Progressive
Bits/(Pixel*Frame)             : 0.161
Stream size                    : 5.68 GiB (91%)
Color range                    : Limited
Color primaries                : BT.709
Transfer characteristics       : BT.709
Matrix coefficients            : BT.709

Audio
Format                         : E-AC-3 JOC
Format/Info                    : Enhanced AC-3 with Joint Object Coding
Commercial name                : Dolby Digital Plus with Dolby Atmos
Codec ID                       : A_EAC3
Duration                       : 1 h 44 min
Bit rate mode                  : Constant
Bit rate                       : 768 kb/s
Channel(s)                     : 6 channels
Channel layout                 : L R C LFE Ls Rs
Sampling rate                  : 48.0 kHz
Frame rate                     : 31.250 FPS (1536 SPF)
Compression mode               : Lossy
Stream size                    : 572 MiB (9%)
Service kind                   : Complete Main
Complexity index               : 16
Number of dynamic objects      : 15
Bed channel count              : 1 channel
Bed channel configuration      : LFE

截图




BT种子下载
梦幻天堂·龙网(www.LWgod.org).暗夜博士:莫比亚斯.魔比斯.torrent (32.53 KB, 下载次数: 11184)

2841

主题

3万

帖子

7万

积分

九鼎龙王·坛主

偶系漂漂滴龙民

Rank: 46Rank: 46Rank: 46Rank: 46Rank: 46Rank: 46

积分
75886

航子大神勋章

 楼主| 发表于 2022-5-19 17:55:58 | 显示全部楼层
  1. 【龙网转发】【美2022视效大片】【暗夜博士:莫比亚斯】【WebDL-1080p.MKV】【中字】
复制代码

  1. 海报

  2. [img]https://img.longwangbt.com/-10-/05.19/a/00.jpg[/img]

  3. [img]https://img.longwangbt.com/-10-/05.19/a/01.jpg[/img]

  4. 译  名 暗夜博士:莫比亚斯/魔比煞(港)/魔比斯(台)/莫比亚斯:暗夜博士/吸血鬼莫比亚斯
  5. 片  名 Morbius
  6. 年  代 2022
  7. 国  家 美国
  8. 类  别 动作/科幻/恐怖
  9. 语  言 英语
  10. 字  幕 中简/中繁/英文
  11. 评  分 5.7/10 from 14,972 users
  12. 链  接 [url=http://www.lwgod.org]https://movie.douban.com/subject/27199850[/url]
  13. 文件大小 6.25 GB
  14. 片  长 104 Min
  15. 导  演 丹尼尔·伊斯皮诺萨 Daniel Espinosa
  16. 主  演 杰瑞德·莱托 Jared Leto
  17.      马特·史密斯 Matt Smith
  18.      阿德里娅·阿霍纳 Adria Arjona
  19.      杰瑞德·哈里斯 Jared Harris
  20.      泰瑞斯·吉布森 Tyrese Gibson
  21.      艾尔·马德里加尔 Al Madrigal
  22.      迈克尔·基顿 Michael Keaton
  23.      查理·肖特韦尔 Charlie Shotwell
  24.      汤姆·福布斯 Tom Forbes
  25.      克拉拉·罗萨杰 Clara Rosager
  26.      克里·约翰逊 Corey Johnson

  27. 简介

  28.   《暗夜博士:莫比亚斯》将首次把漫威宇宙中最另类的暗黑超级英雄莫比亚斯呈现于大银幕。由奥斯卡最佳男配得主杰瑞德·莱托饰演的莫比亚斯博士身患一种罕见的血液疾病,命不久矣的他决心找到治疗方法拯救其他同病患者。为此,他孤注一掷试图根除疾病。一开始一切似乎都成功了,但他的内心深处有一股黑暗却无端释放。善念能否压制住邪恶,还是莫比亚斯会屈服于这神秘的欲望?

  29.   吸血鬼莫比亚斯本名迈克尔·莫比亚斯,是世界闻名的生物化学专家,诺贝尔奖的获得者,一个被荣誉包围的显赫人物,前途无量的他患上了一种罕见的血液疾病,为了治愈这种疾病,迈克尔博士利用吸血蝙蝠和电击进行实验性治疗,不料其副作用把他变成了一个为了生存需要不断吸食血液的“吸血鬼”,从此迈克尔博士自称吸血鬼莫比亚斯。

  30. [quote][size=2]Video
  31. Format                         : AVC
  32. Format/Info                    : Advanced Video Codec
  33. Format profile                 : High @ L4
  34. Format settings                : CABAC / 4 Ref Frames
  35. Format settings, CABAC         : Yes
  36. Format settings, Reference fra : 4 frames
  37. Codec ID                       : V_MPEG4/ISO/AVC
  38. Duration                       : 1 h 44 min
  39. Bit rate                       : 8 000 kb/s
  40. Width                          : 1 920 pixels
  41. Height                         : 1 080 pixels
  42. Display aspect ratio           : 16:9
  43. Frame rate mode                : Constant
  44. Frame rate                     : 23.976 (24000/1001) FPS
  45. Color space                    : YUV
  46. Chroma subsampling             : 4:2:0
  47. Bit depth                      : 8 bits
  48. Scan type                      : Progressive
  49. Bits/(Pixel*Frame)             : 0.161
  50. Stream size                    : 5.68 GiB (91%)
  51. Color range                    : Limited
  52. Color primaries                : BT.709
  53. Transfer characteristics       : BT.709
  54. Matrix coefficients            : BT.709

  55. Audio
  56. Format                         : E-AC-3 JOC
  57. Format/Info                    : Enhanced AC-3 with Joint Object Coding
  58. Commercial name                : Dolby Digital Plus with Dolby Atmos
  59. Codec ID                       : A_EAC3
  60. Duration                       : 1 h 44 min
  61. Bit rate mode                  : Constant
  62. Bit rate                       : 768 kb/s
  63. Channel(s)                     : 6 channels
  64. Channel layout                 : L R C LFE Ls Rs
  65. Sampling rate                  : 48.0 kHz
  66. Frame rate                     : 31.250 FPS (1536 SPF)
  67. Compression mode               : Lossy
  68. Stream size                    : 572 MiB (9%)
  69. Service kind                   : Complete Main
  70. Complexity index               : 16
  71. Number of dynamic objects      : 15
  72. Bed channel count              : 1 channel
  73. Bed channel configuration      : LFE[/size][/quote]
  74. 截图

  75. [img]https://img.longwangbt.com/-10-/05.19/a/02.jpg[/img]
复制代码

1

主题

1923

帖子

5359

积分

海龙王

Rank: 25Rank: 25Rank: 25Rank: 25Rank: 25

积分
5359
发表于 2022-5-19 18:20:08 | 显示全部楼层
感謝航子分享科幻恐怖電影!!

1

主题

8819

帖子

1万

积分

神界龙王

Rank: 30Rank: 30Rank: 30Rank: 30

积分
13018
发表于 2022-5-19 19:01:07 | 显示全部楼层
Thank you very much !!!

0

主题

2962

帖子

4222

积分

赤血神龙

Rank: 20Rank: 20Rank: 20Rank: 20

积分
4222
发表于 2022-5-19 19:03:31 | 显示全部楼层
感谢航子分享!

1

主题

733

帖子

2498

积分

赤血神龙

Rank: 20Rank: 20Rank: 20Rank: 20

积分
2498
QQ
发表于 2022-5-19 19:33:03 | 显示全部楼层
感謝航子分享

0

主题

113

帖子

294

积分

龙少爷

Rank: 10Rank: 10

积分
294
发表于 2022-5-19 20:06:47 | 显示全部楼层
jimyang54 发表于 2022-5-19 18:20
感謝航子分享科幻恐怖電影!!

谢谢楼主分享
男人不坏,女人不爱

1

主题

4496

帖子

6285

积分

海龙王

Rank: 25Rank: 25Rank: 25Rank: 25Rank: 25

积分
6285
发表于 2022-5-19 21:15:26 | 显示全部楼层
感谢楼主分享!!!!!

2

主题

411

帖子

865

积分

龙的传人

Rank: 13Rank: 13Rank: 13

积分
865
发表于 2022-5-19 21:33:40 | 显示全部楼层
感谢楼主分享!

0

主题

408

帖子

3387

积分

赤血神龙

Rank: 20Rank: 20Rank: 20Rank: 20

积分
3387
发表于 2022-5-19 22:17:30 | 显示全部楼层
楼主辛苦,多谢分享。

0

主题

7206

帖子

8019

积分

霸王龙·贵宾

狱血黑龙

Rank: 18Rank: 18

积分
8019
发表于 2022-5-19 22:18:37 | 显示全部楼层
感谢航子的好片分享,支持支持
当你不再拥有的时候,你唯一可以做的,就是令自己不要忘记!

1

主题

491

帖子

1272

积分

神龙

Rank: 15Rank: 15Rank: 15

积分
1272
发表于 2022-5-19 22:31:22 | 显示全部楼层
谢谢分享影片航子

0

主题

181

帖子

1054

积分

神龙

Rank: 15Rank: 15Rank: 15

积分
1054
发表于 2022-5-19 22:38:20 | 显示全部楼层
谢谢楼主分享!

2

主题

971

帖子

2098

积分

升龙霸·VIP

Rank: 22Rank: 22Rank: 22Rank: 22

积分
2098

龙网VIP·银星龙网VIP·银牌

发表于 2022-5-19 23:05:39 | 显示全部楼层
航子辛苦

1

主题

1449

帖子

4388

积分

赤血神龙

Rank: 20Rank: 20Rank: 20Rank: 20

积分
4388
QQ
发表于 2022-5-19 23:19:38 | 显示全部楼层
tks for  share..............
您需要登录后才可以回帖 登录 | 立即注册

本版积分规则

小黑屋|梦幻天堂·龙网

GMT+8, 2024-4-23 00:15 , Processed in 2.794720 second(s), 28 queries , Gzip On.

Powered by Discuz! X3.2

© 2001-2013 Comsenz Inc.

快速回复 返回顶部 返回列表