梦幻天堂·龙网

 找回密码
 立即注册
查看: 37304|回复: 242

[最新电影龙网转发] 【龙网转发】【美2022最热奇幻冒险必看】【瞬息全宇宙】【WebDL-1080p.MKV】【中字】

  [复制链接]

2841

主题

3万

帖子

7万

积分

九鼎龙王·坛主

偶系漂漂滴龙民

Rank: 46Rank: 46Rank: 46Rank: 46Rank: 46Rank: 46

积分
75886

航子大神勋章

发表于 2022-5-24 20:00:11 | 显示全部楼层 |阅读模式
海报





译  名 瞬息全宇宙/妈的多重宇宙(台)/奇异女侠玩救宇宙(港)/天马行空/瞬息各处所有/全部世界同时一切
片  名 Everything Everywhere All at Once
年  代 2022
国  家 美国
类  别 动作/冒险/奇幻/科幻/喜剧
语  言 英语/汉语普通话/粤语
字  幕 中简/中繁/英文
评  分 8.5/10 from 69,679 users
链  接 https://www.imdb.com/title/tt6710474
文件大小 6.41 GB
片  长 139 Min
导  演 关家永 Dan Kwan
     丹尼尔·施纳特 Daniel Scheinert
主  演 杨紫琼 Michelle Yeoh
     许玮伦 Stephanie Hsu
     关继威 Jonathan Ke Quan
     吴汉章 James Hong
     杰米·李·柯蒂斯 Jamie Lee Curtis
     塔丽·梅德尔 Tallie Medel
     珍妮·斯蕾特 Jenny Slate
     岑勇康 Harry Shum Jr.
     比夫·威夫 Biff Wiff
     布莱恩·勒 Brian Le
     安迪·黎 Andy Le
     李景 Li Jing

简介

  55岁的美国华裔移民伊芙琳(杨紫琼 饰)家庭事业两崩溃。在老父亲生日大寿这天,除了要阻止女儿(许玮伦 饰)暴走出柜、替无用丈夫(关继威 饰)擦屁股,还得去税务局向古板大婶(杰米·李·柯蒂斯 饰)解释不太妙的税务问题。才踏进大楼电梯,软烂丈夫竟摇身一变演起黑客帝国,声称自己是另一个宇宙的版本,而秀莲也是千万宇宙里的其中一个。还来不及理解,邪恶势力已在多元宇宙中蔓延,世界即将毁灭,只有在这个宇宙里,“一无是处”的伊芙琳才能拯救世界……

Video
Format                         : AVC
Format/Info                    : Advanced Video Codec
Format profile                 : High@L4
Format settings                : CABAC / 2 Ref Frames
Format settings, CABAC         : Yes
Format settings, Reference fra : 2 frames
Codec ID                       : V_MPEG4/ISO/AVC
Duration                       : 2 h 19 min
Bit rate                       : 6 197 kb/s
Width                          : 1 920 pixels
Height                         : 1 080 pixels
Display aspect ratio           : 16:9
Frame rate mode                : Constant
Frame rate                     : 23.976 (24000/1001) FPS
Color space                    : YUV
Chroma subsampling             : 4:2:0
Bit depth                      : 8 bits
Scan type                      : Progressive
Bits/(Pixel*Frame)             : 0.125
Stream size                    : 6.03 GiB (94%)
Color range                    : Limited
Color primaries                : BT.709
Transfer characteristics       : BT.709
Matrix coefficients            : BT.709

Audio
Format                         : E-AC-3
Format/Info                    : Enhanced AC-3
Commercial name                : Dolby Digital Plus
Codec ID                       : A_EAC3
Duration                       : 2 h 19 min
Bit rate mode                  : Constant
Bit rate                       : 384 kb/s
Channel(s)                     : 6 channels
Channel layout                 : L R C LFE Ls Rs
Sampling rate                  : 48.0 kHz
Frame rate                     : 31.250 FPS (1536 SPF)
Compression mode               : Lossy
Stream size                    : 383 MiB (6%)
Service kind                   : Complete Main

截图




BT种子下载
梦幻天堂·龙网(www.LWgod.org).瞬息全宇宙.妈的多重宇宙.torrent (33.36 KB, 下载次数: 13304)

评分

2

查看全部评分

2841

主题

3万

帖子

7万

积分

九鼎龙王·坛主

偶系漂漂滴龙民

Rank: 46Rank: 46Rank: 46Rank: 46Rank: 46Rank: 46

积分
75886

航子大神勋章

 楼主| 发表于 2022-5-24 20:29:13 | 显示全部楼层
  1. 【龙网转发】【美2022最热奇幻冒险必看】【瞬息全宇宙】【WebDL-1080p.MKV】【中字】
复制代码

  1. 海报

  2. [img]https://img.longwangbt.com/-10-/05.24/s/00.jpg[/img]

  3. [img]https://img.longwangbt.com/-10-/05.24/s/01.jpg[/img]

  4. 译  名 瞬息全宇宙/妈的多重宇宙(台)/奇异女侠玩救宇宙(港)/天马行空/瞬息各处所有/全部世界同时一切
  5. 片  名 Everything Everywhere All at Once
  6. 年  代 2022
  7. 国  家 美国
  8. 类  别 动作/冒险/奇幻/科幻/喜剧
  9. 语  言 英语/汉语普通话/粤语
  10. 字  幕 中简/中繁/英文
  11. 评  分 [color=red]8.5/10 from 69,679 users[/color]
  12. 链  接 [url=http://www.lwgod.org]https://www.imdb.com/title/tt6710474[/url]
  13. 文件大小 6.41 GB
  14. 片  长 139 Min
  15. 导  演 关家永 Dan Kwan
  16.      丹尼尔·施纳特 Daniel Scheinert
  17. 主  演 杨紫琼 Michelle Yeoh
  18.      许玮伦 Stephanie Hsu
  19.      关继威 Jonathan Ke Quan
  20.      吴汉章 James Hong
  21.      杰米·李·柯蒂斯 Jamie Lee Curtis
  22.      塔丽·梅德尔 Tallie Medel
  23.      珍妮·斯蕾特 Jenny Slate
  24.      岑勇康 Harry Shum Jr.
  25.      比夫·威夫 Biff Wiff
  26.      布莱恩·勒 Brian Le
  27.      安迪·黎 Andy Le
  28.      李景 Li Jing

  29. 简介

  30.   55岁的美国华裔移民伊芙琳(杨紫琼 饰)家庭事业两崩溃。在老父亲生日大寿这天,除了要阻止女儿(许玮伦 饰)暴走出柜、替无用丈夫(关继威 饰)擦屁股,还得去税务局向古板大婶(杰米·李·柯蒂斯 饰)解释不太妙的税务问题。才踏进大楼电梯,软烂丈夫竟摇身一变演起黑客帝国,声称自己是另一个宇宙的版本,而秀莲也是千万宇宙里的其中一个。还来不及理解,邪恶势力已在多元宇宙中蔓延,世界即将毁灭,只有在这个宇宙里,“一无是处”的伊芙琳才能拯救世界……

  31. [quote][size=2]Video
  32. Format                         : AVC
  33. Format/Info                    : Advanced Video Codec
  34. Format profile                 : High@L4
  35. Format settings                : CABAC / 2 Ref Frames
  36. Format settings, CABAC         : Yes
  37. Format settings, Reference fra : 2 frames
  38. Codec ID                       : V_MPEG4/ISO/AVC
  39. Duration                       : 2 h 19 min
  40. Bit rate                       : 6 197 kb/s
  41. Width                          : 1 920 pixels
  42. Height                         : 1 080 pixels
  43. Display aspect ratio           : 16:9
  44. Frame rate mode                : Constant
  45. Frame rate                     : 23.976 (24000/1001) FPS
  46. Color space                    : YUV
  47. Chroma subsampling             : 4:2:0
  48. Bit depth                      : 8 bits
  49. Scan type                      : Progressive
  50. Bits/(Pixel*Frame)             : 0.125
  51. Stream size                    : 6.03 GiB (94%)
  52. Color range                    : Limited
  53. Color primaries                : BT.709
  54. Transfer characteristics       : BT.709
  55. Matrix coefficients            : BT.709

  56. Audio
  57. Format                         : E-AC-3
  58. Format/Info                    : Enhanced AC-3
  59. Commercial name                : Dolby Digital Plus
  60. Codec ID                       : A_EAC3
  61. Duration                       : 2 h 19 min
  62. Bit rate mode                  : Constant
  63. Bit rate                       : 384 kb/s
  64. Channel(s)                     : 6 channels
  65. Channel layout                 : L R C LFE Ls Rs
  66. Sampling rate                  : 48.0 kHz
  67. Frame rate                     : 31.250 FPS (1536 SPF)
  68. Compression mode               : Lossy
  69. Stream size                    : 383 MiB (6%)
  70. Service kind                   : Complete Main[/size][/quote]
  71. 截图

  72. [img]https://img.longwangbt.com/-10-/05.24/s/02.jpg[/img]
复制代码

1

主题

4496

帖子

6285

积分

海龙王

Rank: 25Rank: 25Rank: 25Rank: 25Rank: 25

积分
6285
发表于 2022-5-24 20:46:23 | 显示全部楼层
多谢楼主分享!!!!

0

主题

686

帖子

2285

积分

赤血神龙

Rank: 20Rank: 20Rank: 20Rank: 20

积分
2285
发表于 2022-5-24 20:50:38 | 显示全部楼层
感谢你的分享

0

主题

649

帖子

2779

积分

赤血神龙

Rank: 20Rank: 20Rank: 20Rank: 20

积分
2779
发表于 2022-5-24 20:59:17 | 显示全部楼层
好聲好影  支持一覽  感謝您

1

主题

733

帖子

2498

积分

赤血神龙

Rank: 20Rank: 20Rank: 20Rank: 20

积分
2498
QQ
发表于 2022-5-24 21:04:50 | 显示全部楼层
多谢楼主分享

1

主题

491

帖子

1272

积分

神龙

Rank: 15Rank: 15Rank: 15

积分
1272
发表于 2022-5-24 21:14:03 | 显示全部楼层
谢谢分享影片航子

0

主题

2962

帖子

4222

积分

赤血神龙

Rank: 20Rank: 20Rank: 20Rank: 20

积分
4222
发表于 2022-5-24 21:21:02 | 显示全部楼层
感谢航子分享!

0

主题

88

帖子

172

积分

龙之子

Rank: 8Rank: 8Rank: 8Rank: 8

积分
172
发表于 2022-5-24 21:31:40 | 显示全部楼层
感谢分享!

0

主题

9433

帖子

9900

积分

海龙王

Rank: 25Rank: 25Rank: 25Rank: 25Rank: 25

积分
9900
发表于 2022-5-24 21:54:24 | 显示全部楼层
看看杨紫琼不演打戏变身个什么样的角色?感谢航子分享!

1

主题

295

帖子

875

积分

龙的传人

Rank: 13Rank: 13Rank: 13

积分
875
发表于 2022-5-24 21:58:42 | 显示全部楼层
感谢分享!!!!

0

主题

467

帖子

1068

积分

神龙

Rank: 15Rank: 15Rank: 15

积分
1068
发表于 2022-5-24 22:02:54 | 显示全部楼层
xiexiefenxiang

0

主题

7206

帖子

8019

积分

霸王龙·贵宾

狱血黑龙

Rank: 18Rank: 18

积分
8019
发表于 2022-5-24 22:26:22 | 显示全部楼层
感谢航子的好片分享,支持支持
当你不再拥有的时候,你唯一可以做的,就是令自己不要忘记!

0

主题

540

帖子

1362

积分

神龙

Rank: 15Rank: 15Rank: 15

积分
1362
发表于 2022-5-24 22:27:24 | 显示全部楼层
thanks for sharing!

1

主题

1449

帖子

4388

积分

赤血神龙

Rank: 20Rank: 20Rank: 20Rank: 20

积分
4388
QQ
发表于 2022-5-24 23:11:22 | 显示全部楼层
tks for share..............
您需要登录后才可以回帖 登录 | 立即注册

本版积分规则

小黑屋|梦幻天堂·龙网

GMT+8, 2024-4-22 23:50 , Processed in 0.212328 second(s), 27 queries , Gzip On.

Powered by Discuz! X3.2

© 2001-2013 Comsenz Inc.

快速回复 返回顶部 返回列表