梦幻天堂·龙网

 找回密码
 立即注册
查看: 51784|回复: 185

[最新电影龙网转发] 【龙网转发】【美国2022最新科幻惊悚大片】【双重躯体】【WebDL-1080p.MKV】【中字】

  [复制链接]

2841

主题

3万

帖子

7万

积分

九鼎龙王·坛主

偶系漂漂滴龙民

Rank: 46Rank: 46Rank: 46Rank: 46Rank: 46Rank: 46

积分
75886

航子大神勋章

发表于 2022-5-26 20:36:22 | 显示全部楼层 |阅读模式
海报





译  名 双重躯体/双重身分(台)
片  名 Dual
年  代 2022
国  家 美国/芬兰
类  别 科幻/惊悚
语  言 英语
字  幕 中简/中繁/英文
评  分 6.3/10 from 771 users
链  接 https://movie.douban.com/subject/35050800
文件大小 6.84 GB
片  长 95 Min
导  演 莱利·斯特恩斯 Riley Stearns
主  演 凯伦·吉兰 Karen Gillan
     亚伦·保尔 Aaron Paul
     比尤拉·寇尔 Beulah Koale
     西奥·詹姆斯 Theo James
     埃莉娜·杰克逊 Elina Jackson
     玛伊娅·保尼奥 Maija Paunio
     蕾雅·莱斯特 Rea Lest
     琼·海德 June Hyde
     克里斯托弗·古梅鲁斯 Kristofer Gummerus
     尼科·谢基宁 Nico Siekkinen
     艾尔莎·赛西奥 Elsa Saisio

简介

  莎拉(凯伦·吉兰 饰)在收到绝症诊断后,决定用克隆技术复制自己,以减轻她的离世对朋友和家人造成的痛苦。可她却奇迹般地康复了。然而,此时她申请销毁自己的克隆复制品的尝试却失败了,法院授权判罚:本体和克隆体必须进行决斗,两人只能活下来一个。

Video
Format                         : AVC
Format/Info                    : Advanced Video Codec
Format profile                 : High@L4
Format settings                : CABAC / 4 Ref Frames
Format settings, CABAC         : Yes
Format settings, Reference fra : 4 frames
Codec ID                       : V_MPEG4/ISO/AVC
Duration                       : 1 h 34 min
Bit rate mode                  : Constant
Bit rate                       : 10 000 kb/s
Width                          : 1 920 pixels
Height                         : 1 080 pixels
Display aspect ratio           : 16:9
Frame rate mode                : Constant
Frame rate                     : 24.000 FPS
Color space                    : YUV
Chroma subsampling             : 4:2:0
Bit depth                      : 8 bits
Scan type                      : Progressive
Bits/(Pixel*Frame)             : 0.201
Stream size                    : 6.41 GiB (94%)
Color range                    : Limited
Color primaries                : BT.709
Transfer characteristics       : BT.709
Matrix coefficients            : BT.709

Audio
Format                         : E-AC-3
Format/Info                    : Enhanced AC-3
Commercial name                : Dolby Digital Plus
Codec ID                       : A_EAC3
Duration                       : 1 h 34 min
Bit rate mode                  : Constant
Bit rate                       : 640 kb/s
Channel(s)                     : 6 channels
Channel layout                 : L R C LFE Ls Rs
Sampling rate                  : 48.0 kHz
Frame rate                     : 31.250 FPS (1536 SPF)
Compression mode               : Lossy
Stream size                    : 433 MiB (6%)
Service kind                   : Complete Main

截图




BT种子下载
梦幻天堂·龙网(www.LWgod.org).双重躯体.双重身分.torrent (35.49 KB, 下载次数: 8339)

2841

主题

3万

帖子

7万

积分

九鼎龙王·坛主

偶系漂漂滴龙民

Rank: 46Rank: 46Rank: 46Rank: 46Rank: 46Rank: 46

积分
75886

航子大神勋章

 楼主| 发表于 2022-5-26 21:02:02 | 显示全部楼层
  1. 【龙网转发】【美国2022最新科幻惊悚大片】【双重躯体】【WebDL-1080p.MKV】【中字】
复制代码

  1. 海报

  2. [img]https://img.longwangbt.com/-10-/05.26/s/00.jpg[/img]

  3. [img]https://img.longwangbt.com/-10-/05.26/s/01.jpg[/img]

  4. 译  名 双重躯体/双重身分(台)
  5. 片  名 Dual
  6. 年  代 2022
  7. 国  家 美国/芬兰
  8. 类  别 科幻/惊悚
  9. 语  言 英语
  10. 字  幕 中简/中繁/英文
  11. 评  分 6.3/10 from 771 users
  12. 链  接 [url=http://www.lwgod.org]https://movie.douban.com/subject/35050800[/url]
  13. 文件大小 6.84 GB
  14. 片  长 95 Min
  15. 导  演 莱利·斯特恩斯 Riley Stearns
  16. 主  演 凯伦·吉兰 Karen Gillan
  17.      亚伦·保尔 Aaron Paul
  18.      比尤拉·寇尔 Beulah Koale
  19.      西奥·詹姆斯 Theo James
  20.      埃莉娜·杰克逊 Elina Jackson
  21.      玛伊娅·保尼奥 Maija Paunio
  22.      蕾雅·莱斯特 Rea Lest
  23.      琼·海德 June Hyde
  24.      克里斯托弗·古梅鲁斯 Kristofer Gummerus
  25.      尼科·谢基宁 Nico Siekkinen
  26.      艾尔莎·赛西奥 Elsa Saisio

  27. 简介

  28.   莎拉(凯伦·吉兰 饰)在收到绝症诊断后,决定用克隆技术复制自己,以减轻她的离世对朋友和家人造成的痛苦。可她却奇迹般地康复了。然而,此时她申请销毁自己的克隆复制品的尝试却失败了,法院授权判罚:本体和克隆体必须进行决斗,两人只能活下来一个。

  29. [quote][size=2]Video
  30. Format                         : AVC
  31. Format/Info                    : Advanced Video Codec
  32. Format profile                 : High@L4
  33. Format settings                : CABAC / 4 Ref Frames
  34. Format settings, CABAC         : Yes
  35. Format settings, Reference fra : 4 frames
  36. Codec ID                       : V_MPEG4/ISO/AVC
  37. Duration                       : 1 h 34 min
  38. Bit rate mode                  : Constant
  39. Bit rate                       : 10 000 kb/s
  40. Width                          : 1 920 pixels
  41. Height                         : 1 080 pixels
  42. Display aspect ratio           : 16:9
  43. Frame rate mode                : Constant
  44. Frame rate                     : 24.000 FPS
  45. Color space                    : YUV
  46. Chroma subsampling             : 4:2:0
  47. Bit depth                      : 8 bits
  48. Scan type                      : Progressive
  49. Bits/(Pixel*Frame)             : 0.201
  50. Stream size                    : 6.41 GiB (94%)
  51. Color range                    : Limited
  52. Color primaries                : BT.709
  53. Transfer characteristics       : BT.709
  54. Matrix coefficients            : BT.709

  55. Audio
  56. Format                         : E-AC-3
  57. Format/Info                    : Enhanced AC-3
  58. Commercial name                : Dolby Digital Plus
  59. Codec ID                       : A_EAC3
  60. Duration                       : 1 h 34 min
  61. Bit rate mode                  : Constant
  62. Bit rate                       : 640 kb/s
  63. Channel(s)                     : 6 channels
  64. Channel layout                 : L R C LFE Ls Rs
  65. Sampling rate                  : 48.0 kHz
  66. Frame rate                     : 31.250 FPS (1536 SPF)
  67. Compression mode               : Lossy
  68. Stream size                    : 433 MiB (6%)
  69. Service kind                   : Complete Main[/size][/quote]
  70. 截图

  71. [img]https://img.longwangbt.com/-10-/05.26/s/02.jpg[/img]
复制代码

1

主题

491

帖子

1272

积分

神龙

Rank: 15Rank: 15Rank: 15

积分
1272
发表于 2022-5-26 21:21:41 | 显示全部楼层
谢谢航子分享科幻片

0

主题

9433

帖子

9900

积分

海龙王

Rank: 25Rank: 25Rank: 25Rank: 25Rank: 25

积分
9900
发表于 2022-5-26 21:44:43 | 显示全部楼层
科幻影片,下来看看。感谢航子分享!

0

主题

44

帖子

87

积分

龙之子

Rank: 8Rank: 8Rank: 8Rank: 8

积分
87
QQ
发表于 2022-5-26 21:49:59 | 显示全部楼层
感谢航子分享!

0

主题

695

帖子

1913

积分

神龙

Rank: 15Rank: 15Rank: 15

积分
1913
发表于 2022-5-26 22:24:52 | 显示全部楼层
谢谢分享,下来看看

1

主题

733

帖子

2498

积分

赤血神龙

Rank: 20Rank: 20Rank: 20Rank: 20

积分
2498
QQ
发表于 2022-5-26 22:42:22 | 显示全部楼层
谢谢航子分享

0

主题

125

帖子

172

积分

龙之子

Rank: 8Rank: 8Rank: 8Rank: 8

积分
172
发表于 2022-5-26 23:11:46 | 显示全部楼层
感谢航子分享

0

主题

4136

帖子

5933

积分

海龙王

Rank: 25Rank: 25Rank: 25Rank: 25Rank: 25

积分
5933
发表于 2022-5-26 23:23:39 | 显示全部楼层
感谢航子的分享

1

主题

1449

帖子

4388

积分

赤血神龙

Rank: 20Rank: 20Rank: 20Rank: 20

积分
4388
QQ
发表于 2022-5-26 23:27:38 | 显示全部楼层
tks for share...............

20

主题

3万

帖子

4万

积分

神界龙王

Rank: 30Rank: 30Rank: 30Rank: 30

积分
42933
发表于 2022-5-26 23:32:32 | 显示全部楼层
蛮有意思的片子,收藏了

0

主题

408

帖子

3387

积分

赤血神龙

Rank: 20Rank: 20Rank: 20Rank: 20

积分
3387
发表于 2022-5-27 01:26:16 | 显示全部楼层
楼主辛苦,多谢分享。

2

主题

971

帖子

2098

积分

升龙霸·VIP

Rank: 22Rank: 22Rank: 22Rank: 22

积分
2098

龙网VIP·银星龙网VIP·银牌

发表于 2022-5-27 01:53:58 | 显示全部楼层
感谢航子分享

0

主题

1万

帖子

1万

积分

神界龙王

Rank: 30Rank: 30Rank: 30Rank: 30

积分
16352
QQ
发表于 2022-5-27 05:36:14 | 显示全部楼层
感谢航子分享
一切终会过去

0

主题

227

帖子

1600

积分

神龙

Rank: 15Rank: 15Rank: 15

积分
1600
发表于 2022-5-27 07:50:45 | 显示全部楼层
爱生活,爱分享,所到之处皆阳光!
总有看不完的电影,所以永远忘不了那个给你分享电影的人!
您需要登录后才可以回帖 登录 | 立即注册

本版积分规则

小黑屋|梦幻天堂·龙网

GMT+8, 2024-4-23 00:58 , Processed in 0.906160 second(s), 28 queries , Gzip On.

Powered by Discuz! X3.2

© 2001-2013 Comsenz Inc.

快速回复 返回顶部 返回列表