梦幻天堂·龙网

 找回密码
 立即注册
查看: 10074|回复: 138

[最新电影龙网转发] 【龙网转发】【周冬雨章宇2023最新悬疑犯罪】【鹦鹉杀】【WebDL-2160p.MKV】【国语】

  [复制链接]

2841

主题

3万

帖子

7万

积分

九鼎龙王·坛主

偶系漂漂滴龙民

Rank: 46Rank: 46Rank: 46Rank: 46Rank: 46Rank: 46

积分
75886

航子大神勋章

发表于 2023-11-11 19:59:08 | 显示全部楼层 |阅读模式
海报





译  名 鹦鹉杀
片  名 Tainted Love
年  代 2023
国  家 中国
类  别 悬疑/犯罪
语  言 汉语普通话
字  幕 中英硬字幕
评  分 5.9/10 from 25,623 users
链  接 https://movie.douban.com/subject/35496265
文件大小 9.51 GB
片  长 101 Min
导  演 麻赢心 Yingxin Ma
主  演 周冬雨 Dongyu Zhou
     章宇 Yu Zhang
     张宥浩 Youhao Zhang
     李梦 Meng Li
     蔡祥宇 Xiangyu Cai
     茂涛 Mao Tao
     蒋奇明 Qiming Jiang
     吴里璐 Dora Ng
     厉槟源 Bingyuan Li
     蔡苑菲 Yuanfei Cai

简介

  都市白领周冉(周冬雨 饰)在一次网恋中,被骗走了55万。循着骗子留下的蛛丝马迹,周冉来到沿海小城,并意外结识了小镇青年林致光(章宇 饰)和许照(张宥浩 饰)。周冉渐渐发现二人身上隐藏着自己受骗的线索,一场复仇之计也由此展开……

  电影故事源自大量“杀猪盘”真实案例。该影片以新型诈骗手法“杀猪盘”为故事背景,通过受骗女性的角度,不仅揭示了骗局的真相,更探索了女性的情感需求现状。

Video
Format                         : HEVC
Format/Info                    : High Efficiency Video Coding
Format profile                 : Main@L5@Main
Codec ID                       : V_MPEGH/ISO/HEVC
Duration                       : 1 h 40 min
Bit rate                       : 13.5 Mb/s
Width                          : 3 840 pixels
Height                         : 1 608 pixels
Display aspect ratio           : 2.40:1
Frame rate mode                : Constant
Frame rate                     : 24.000 FPS
Color space                    : YUV
Chroma subsampling             : 4:2:0
Bit depth                      : 8 bits
Bits/(Pixel*Frame)             : 0.091
Stream size                    : 9.45 GiB (99%)

Audio
Format                         : E-AC-3
Format/Info                    : Enhanced AC-3
Commercial name                : Dolby Digital Plus
Codec ID                       : A_EAC3
Duration                       : 1 h 40 min
Bit rate mode                  : Constant
Bit rate                       : 96.0 kb/s
Channel(s)                     : 2 channels
Channel layout                 : L R
Sampling rate                  : 48.0 kHz
Frame rate                     : 31.250 FPS (1536 SPF)
Compression mode               : Lossy
Stream size                    : 68.8 MiB (1%)
Language                       : Chinese (China)
Service kind                   : Complete Main

截图




BT种子下载
梦幻天堂·龙网(www.LWgod.org).鹦鹉杀.torrent (48.79 KB, 下载次数: 3531)

评分

1

查看全部评分

2841

主题

3万

帖子

7万

积分

九鼎龙王·坛主

偶系漂漂滴龙民

Rank: 46Rank: 46Rank: 46Rank: 46Rank: 46Rank: 46

积分
75886

航子大神勋章

 楼主| 发表于 2023-11-11 20:24:52 | 显示全部楼层
  1. 【龙网转发】【周冬雨章宇2023最新悬疑犯罪】【鹦鹉杀】【WebDL-2160p.MKV】【国语】
复制代码

  1. 海报

  2. [img]https://img.longwangbt.com/-10-/11.11/y/00.jpg[/img]

  3. [img]https://img.longwangbt.com/-10-/11.11/y/01.jpg[/img]

  4. 译  名 鹦鹉杀
  5. 片  名 Tainted Love
  6. 年  代 2023
  7. 国  家 中国
  8. 类  别 悬疑/犯罪
  9. 语  言 汉语普通话
  10. 字  幕 中英硬字幕
  11. 评  分 5.9/10 from 25,623 users
  12. 链  接 [url=https://movie.douban.com/subject/35496265]https://movie.douban.com/subject/35496265[/url]
  13. 文件大小 9.51 GB
  14. 片  长 101 Min
  15. 导  演 麻赢心 Yingxin Ma
  16. 主  演 周冬雨 Dongyu Zhou
  17.      章宇 Yu Zhang
  18.      张宥浩 Youhao Zhang
  19.      李梦 Meng Li
  20.      蔡祥宇 Xiangyu Cai
  21.      茂涛 Mao Tao
  22.      蒋奇明 Qiming Jiang
  23.      吴里璐 Dora Ng
  24.      厉槟源 Bingyuan Li
  25.      蔡苑菲 Yuanfei Cai

  26. 简介

  27.   都市白领周冉(周冬雨 饰)在一次网恋中,被骗走了55万。循着骗子留下的蛛丝马迹,周冉来到沿海小城,并意外结识了小镇青年林致光(章宇 饰)和许照(张宥浩 饰)。周冉渐渐发现二人身上隐藏着自己受骗的线索,一场复仇之计也由此展开……

  28.   电影故事源自大量“杀猪盘”真实案例。该影片以新型诈骗手法“杀猪盘”为故事背景,通过受骗女性的角度,不仅揭示了骗局的真相,更探索了女性的情感需求现状。

  29. 截图

  30. [img]https://img.longwangbt.com/-10-/11.11/y/02.jpg[/img]
复制代码

0

主题

375

帖子

1100

积分

神龙

Rank: 15Rank: 15Rank: 15

积分
1100
发表于 2023-11-11 20:49:15 | 显示全部楼层
感谢航子的分享!!!

0

主题

65

帖子

118

积分

龙之子

Rank: 8Rank: 8Rank: 8Rank: 8

积分
118
发表于 2023-11-11 20:54:55 | 显示全部楼层
{:4_130:}{:4_130:}{:4_130:}{:4_130:}{:4_130:}{:4_130:}{:4_130:}

0

主题

93

帖子

1859

积分

神龙

Rank: 15Rank: 15Rank: 15

积分
1859
发表于 2023-11-11 21:00:54 | 显示全部楼层
{:4_146:}{:4_146:}{:4_146:}

0

主题

429

帖子

1109

积分

神龙

Rank: 15Rank: 15Rank: 15

积分
1109
发表于 2023-11-11 21:29:45 | 显示全部楼层
终于回归了

0

主题

210

帖子

366

积分

龙少爷

Rank: 10Rank: 10

积分
366
发表于 2023-11-11 21:35:16 | 显示全部楼层
在我老家拍的

0

主题

126

帖子

846

积分

升龙霸·VIP

Rank: 22Rank: 22Rank: 22Rank: 22

积分
846

龙网爱心勋章龙网VIP·银牌龙网VIP·银章

发表于 2023-11-11 21:41:33 | 显示全部楼层
感谢航子

1

主题

59

帖子

585

积分

龙的传人

Rank: 13Rank: 13Rank: 13

积分
585
发表于 2023-11-11 21:49:37 | 显示全部楼层
好耶! 恭迎航子回归!{:4_130:}{:4_130:}

0

主题

28

帖子

375

积分

龙少爷

Rank: 10Rank: 10

积分
375
发表于 2023-11-11 21:54:31 | 显示全部楼层
欢迎航子回归!!!!!!!!!!!!{:4_151:}{:4_151:}

0

主题

78

帖子

865

积分

升龙霸·VIP

Rank: 22Rank: 22Rank: 22Rank: 22

积分
865

龙网爱心勋章龙网VIP·金章

发表于 2023-11-11 22:06:51 | 显示全部楼层
航子归来!!!!!

2

主题

1774

帖子

2354

积分

赤血神龙

Rank: 20Rank: 20Rank: 20Rank: 20

积分
2354
发表于 2023-11-11 22:14:23 | 显示全部楼层
太好了,恭迎航子回归,大大辛苦了。

0

主题

69

帖子

149

积分

龙之子

Rank: 8Rank: 8Rank: 8Rank: 8

积分
149
发表于 2023-11-11 22:15:20 | 显示全部楼层
热烈欢迎航子归来!

0

主题

7

帖子

59

积分

升龙霸·VIP

Rank: 22Rank: 22Rank: 22Rank: 22

积分
59

龙网VIP·银牌

发表于 2023-11-11 22:21:06 | 显示全部楼层
航子回来啦!看来服务器搞定了!祝愿龙网越来越好!

4

主题

76

帖子

516

积分

升龙霸·VIP

KISSER-小黑黑

Rank: 22Rank: 22Rank: 22Rank: 22

积分
516

龙网VIP·银章

发表于 2023-11-11 22:26:04 | 显示全部楼层
回来了么?
您需要登录后才可以回帖 登录 | 立即注册

本版积分规则

小黑屋|梦幻天堂·龙网

GMT+8, 2024-4-22 22:58 , Processed in 0.339382 second(s), 29 queries , Gzip On.

Powered by Discuz! X3.2

© 2001-2013 Comsenz Inc.

快速回复 返回顶部 返回列表