梦幻天堂·龙网

 找回密码
 立即注册
查看: 16517|回复: 130

[最新电影龙网转发] 【龙网转发】【大卫芬奇导演2023最新动作犯罪】【杀手】【WebDL-1080p.MKV】【中字】

  [复制链接]

2914

主题

3万

帖子

7万

积分

九鼎龙王·坛主

偶系漂漂滴龙民

Rank: 46Rank: 46Rank: 46Rank: 46Rank: 46Rank: 46

积分
76126

航子大神勋章

发表于 2023-11-13 20:00:05 | 显示全部楼层 |阅读模式
海报





译  名 杀手
片  名 The Killer
年  代 2023
国  家 美国
类  别 动作/悬疑/惊悚/犯罪/冒险
语  言 英语
字  幕 中简/中繁/英文
评  分 6.6/10 from 9,045 users
链  接 https://movie.douban.com/subject/2998451
文件大小 4.65 GB
片  长 118 Min
导  演 大卫·芬奇 David Fincher
主  演 迈克尔·法斯宾德 Michael Fassbender
     蒂尔达·斯文顿 Tilda Swinton
     查尔斯·帕内尔 Charles Parnell
     艾利斯·霍华德 Arliss Howard
     凯莉·奥马利 Kerry O'Malley
     索菲·夏洛特 Sophie Charlotte
     埃米利亚诺·佩尼亚 Emiliano Pernia
     加布里埃尔·波兰科 Gabriel Polanco
     萨拉·贝克 Sala Baker
     安德烈·胡勒斯 Endre Hules
     伯纳德·拜戈特 Bernard Bygott

简介

  发生致命的失误后,这名刺客在一场国际追捕行动之中与雇主们和他自己展开对抗,而他坚称这绝不是私人恩怨。

Video
Format                         : AVC
Format/Info                    : Advanced Video Codec
Format profile                 : Main@L4
Format settings                : CABAC / 3 Ref Frames
Format settings, CABAC         : Yes
Format settings, Reference fra : 3 frames
Codec ID                       : V_MPEG4/ISO/AVC
Duration                       : 1 h 59 min
Bit rate mode                  : Variable
Bit rate                       : 5 000 kb/s
Maximum bit rate               : 7 500 kb/s
Width                          : 1 920 pixels
Height                         : 1 080 pixels
Display aspect ratio           : 16:9
Frame rate mode                : Constant
Frame rate                     : 24.000 FPS
Color space                    : YUV
Chroma subsampling             : 4:2:0
Bit depth                      : 8 bits
Scan type                      : Progressive
Bits/(Pixel*Frame)             : 0.100
Stream size                    : 4.11 GiB (88%)

Audio
Format                         : E-AC-3
Format/Info                    : Enhanced AC-3
Commercial name                : Dolby Digital Plus
Codec ID                       : A_EAC3
Duration                       : 1 h 59 min
Bit rate mode                  : Constant
Bit rate                       : 640 kb/s
Channel(s)                     : 6 channels
Channel layout                 : L R C LFE Ls Rs
Sampling rate                  : 48.0 kHz
Frame rate                     : 31.250 FPS (1536 SPF)
Compression mode               : Lossy
Stream size                    : 547 MiB (11%)
Language                       : English
Service kind                   : Complete Main

截图




BT种子下载
梦幻天堂·龙网(www.LWgod.org).杀手.大卫芬奇导演2023新片.torrent (24.55 KB, 下载次数: 5458)

2914

主题

3万

帖子

7万

积分

九鼎龙王·坛主

偶系漂漂滴龙民

Rank: 46Rank: 46Rank: 46Rank: 46Rank: 46Rank: 46

积分
76126

航子大神勋章

 楼主| 发表于 2023-11-13 20:14:17 | 显示全部楼层
  1. 【龙网转发】【大卫芬奇导演2023最新动作犯罪】【杀手】【WebDL-1080p.MKV】【中字】
复制代码

  1. 海报

  2. [img]https://img.longwangbt.com/-10-/11.13/s/00.jpg[/img]

  3. [img]https://img.longwangbt.com/-10-/11.13/s/01.jpg[/img]

  4. 译  名 杀手
  5. 片  名 The Killer
  6. 年  代 2023
  7. 国  家 美国
  8. 类  别 动作/悬疑/惊悚/犯罪/冒险
  9. 语  言 英语
  10. 字  幕 中简/中繁/英文
  11. 评  分 6.6/10 from 9,045 users
  12. 链  接 [url=https://movie.douban.com/subject/2998451]https://movie.douban.com/subject/2998451[/url]
  13. 文件大小 4.65 GB
  14. 片  长 118 Min
  15. 导  演 大卫·芬奇 David Fincher
  16. 主  演 迈克尔·法斯宾德 Michael Fassbender
  17.      蒂尔达·斯文顿 Tilda Swinton
  18.      查尔斯·帕内尔 Charles Parnell
  19.      艾利斯·霍华德 Arliss Howard
  20.      凯莉·奥马利 Kerry O'Malley
  21.      索菲·夏洛特 Sophie Charlotte
  22.      埃米利亚诺·佩尼亚 Emiliano Pernia
  23.      加布里埃尔·波兰科 Gabriel Polanco
  24.      萨拉·贝克 Sala Baker
  25.      安德烈·胡勒斯 Endre Hules
  26.      伯纳德·拜戈特 Bernard Bygott

  27. 简介

  28.   发生致命的失误后,这名刺客在一场国际追捕行动之中与雇主们和他自己展开对抗,而他坚称这绝不是私人恩怨。

  29. [quote][size=2]Video
  30. Format                         : AVC
  31. Format/Info                    : Advanced Video Codec
  32. Format profile                 : Main@L4
  33. Format settings                : CABAC / 3 Ref Frames
  34. Format settings, CABAC         : Yes
  35. Format settings, Reference fra : 3 frames
  36. Codec ID                       : V_MPEG4/ISO/AVC
  37. Duration                       : 1 h 59 min
  38. Bit rate mode                  : Variable
  39. Bit rate                       : 5 000 kb/s
  40. Maximum bit rate               : 7 500 kb/s
  41. Width                          : 1 920 pixels
  42. Height                         : 1 080 pixels
  43. Display aspect ratio           : 16:9
  44. Frame rate mode                : Constant
  45. Frame rate                     : 24.000 FPS
  46. Color space                    : YUV
  47. Chroma subsampling             : 4:2:0
  48. Bit depth                      : 8 bits
  49. Scan type                      : Progressive
  50. Bits/(Pixel*Frame)             : 0.100
  51. Stream size                    : 4.11 GiB (88%)

  52. Audio
  53. Format                         : E-AC-3
  54. Format/Info                    : Enhanced AC-3
  55. Commercial name                : Dolby Digital Plus
  56. Codec ID                       : A_EAC3
  57. Duration                       : 1 h 59 min
  58. Bit rate mode                  : Constant
  59. Bit rate                       : 640 kb/s
  60. Channel(s)                     : 6 channels
  61. Channel layout                 : L R C LFE Ls Rs
  62. Sampling rate                  : 48.0 kHz
  63. Frame rate                     : 31.250 FPS (1536 SPF)
  64. Compression mode               : Lossy
  65. Stream size                    : 547 MiB (11%)
  66. Language                       : English
  67. Service kind                   : Complete Main[/size][/quote]
  68. 截图

  69. [img]https://img.longwangbt.com/-10-/11.13/s/02.jpg[/img]
复制代码

1

主题

523

帖子

1380

积分

神龙

Rank: 15Rank: 15Rank: 15

积分
1380
发表于 2023-11-13 20:38:24 | 显示全部楼层
谢谢航子分享

4

主题

579

帖子

2748

积分

赤血神龙

Rank: 20Rank: 20Rank: 20Rank: 20

积分
2748

龙网爱心勋章

QQ
发表于 2023-11-13 20:42:43 | 显示全部楼层
大卫 的电影  迈克尔主演
生活不容易

4

主题

773

帖子

1531

积分

神龙

Rank: 15Rank: 15Rank: 15

积分
1531
发表于 2023-11-13 20:43:20 | 显示全部楼层
谢谢美女分享 辛苦了

0

主题

1437

帖子

2987

积分

赤血神龙

Rank: 20Rank: 20Rank: 20Rank: 20

积分
2987
发表于 2023-11-13 20:49:20 | 显示全部楼层
谢谢航子分享

0

主题

6986

帖子

7864

积分

海龙王

Rank: 25Rank: 25Rank: 25Rank: 25Rank: 25

积分
7864
发表于 2023-11-13 20:54:22 | 显示全部楼层
谢谢航子分享

0

主题

408

帖子

3387

积分

赤血神龙

Rank: 20Rank: 20Rank: 20Rank: 20

积分
3387
发表于 2023-11-13 20:57:09 | 显示全部楼层
楼主辛苦,多谢分享。

0

主题

900

帖子

2243

积分

赤血神龙

Rank: 20Rank: 20Rank: 20Rank: 20

积分
2243
发表于 2023-11-13 20:57:18 | 显示全部楼层
感谢分享!辛苦了!

22

主题

6万

帖子

8万

积分

天地独尊龙王

梦幻天使

Rank: 33Rank: 33Rank: 33Rank: 33Rank: 33

积分
82914
发表于 2023-11-13 21:00:10 | 显示全部楼层
非常感谢航子分享精彩影片!

2

主题

407

帖子

1315

积分

神龙

Rank: 15Rank: 15Rank: 15

积分
1315

龙网爱心勋章

发表于 2023-11-13 21:03:20 | 显示全部楼层
甚是想念,回来就好。

1

主题

810

帖子

2684

积分

赤血神龙

Rank: 20Rank: 20Rank: 20Rank: 20

积分
2684
QQ
发表于 2023-11-13 21:18:01 | 显示全部楼层
看了觉得没什么意思

1

主题

828

帖子

1135

积分

神龙

Rank: 15Rank: 15Rank: 15

积分
1135
发表于 2023-11-13 22:00:58 | 显示全部楼层
感谢航子的努力。

0

主题

216

帖子

433

积分

龙少爷

Rank: 10Rank: 10

积分
433
发表于 2023-11-13 22:08:20 | 显示全部楼层
航子终于来了,感谢分享,以后看片不愁了
看贴要回贴

0

主题

211

帖子

1829

积分

神龙

Rank: 15Rank: 15Rank: 15

积分
1829
发表于 2023-11-13 22:10:30 | 显示全部楼层
谢谢航子分享
您需要登录后才可以回帖 登录 | 立即注册

本版积分规则

小黑屋|梦幻天堂·龙网

GMT+8, 2024-7-21 11:29 , Processed in 0.883849 second(s), 29 queries , Gzip On.

Powered by Discuz! X3.2

© 2001-2013 Comsenz Inc.

快速回复 返回顶部 返回列表