梦幻天堂·龙网

 找回密码
 立即注册
查看: 45214|回复: 195

[最新电影龙网转发] 【龙网转发】【2022性感美女大尺度】【365天:明日之欲】【WebDL-1080p.MKV】【中字】

  [复制链接]

2914

主题

3万

帖子

7万

积分

九鼎龙王·坛主

偶系漂漂滴龙民

Rank: 46Rank: 46Rank: 46Rank: 46Rank: 46Rank: 46

积分
76126

航子大神勋章

发表于 2023-11-16 14:50:37 | 显示全部楼层 |阅读模式
本片是"黑帮大佬和我的365日"系列的第三部
前两部下载地址:第一部  第二部


海报



译  名 365天:明日之欲/黑帮大佬和我的365日3/接下来的365天/再现之欲
片  名 The Next 365 Days
年  代 2022
国  家 波兰
类  别 剧情/爱情/情色
语  言 波兰语/英语
字  幕 中简/中繁/英文
评  分 4.6/10 from 7,138 users
链  接 https://movie.douban.com/subject/35952006
文件大小 2.20 GB
片  长 112 Min
导  演 芭芭拉·比尔拉瓦斯 Barbara Bialowas
     托马斯·曼丁斯 Tomasz Mandes
主  演 安娜·玛丽亚·西克拉克 Anna Maria Sieklucka
     米凯莱·莫罗尼 Michele Morrone
     西蒙·苏西纳 Simone Susinna
     玛格达莱娜·朗帕斯卡 Magdalena Lamparska
     奥塔尔·萨拉利兹 Otar Saralidze
     埃瓦·卡斯珀齐克 Ewa Kasprzyk
     达里乌斯·贾库波斯基 Dariusz Jakubowski
     拉蒙·兰加 Ramon Langa
     托马斯·曼丁斯 Tomasz Mandes
     娜塔莉亚·西维茨 Natalia Siwiec
     卡罗琳娜·皮萨雷克 Karolina Pisarek

简介

  劳拉和马西莫的关系岌岌可危,二人试图克服信任问题,而执着的纳乔想方设法拆散二人。

Video
Format                         : AVC
Format/Info                    : Advanced Video Codec
Format profile                 : High@L4
Format settings                : CABAC / 4 Ref Frames
Format settings, CABAC         : Yes
Format settings, Reference fra : 4 frames
Codec ID                       : V_MPEG4/ISO/AVC
Duration                       : 1 h 53 min
Bit rate mode                  : Variable
Bit rate                       : 2 125 kb/s
Maximum bit rate               : 20.0 Mb/s
Width                          : 1 920 pixels
Height                         : 1 080 pixels
Display aspect ratio           : 16:9
Frame rate mode                : Constant
Frame rate                     : 25.000 FPS
Color space                    : YUV
Chroma subsampling             : 4:2:0
Bit depth                      : 8 bits
Scan type                      : Progressive
Bits/(Pixel*Frame)             : 0.041
Stream size                    : 1.69 GiB (76%)

Audio
Format                         : E-AC-3
Format/Info                    : Enhanced AC-3
Commercial name                : Dolby Digital Plus
Codec ID                       : A_EAC3
Duration                       : 1 h 53 min
Bit rate mode                  : Constant
Bit rate                       : 640 kb/s
Channel(s)                     : 6 channels
Channel layout                 : L R C LFE Ls Rs
Sampling rate                  : 48.0 kHz
Frame rate                     : 31.250 FPS (1536 SPF)
Compression mode               : Lossy
Stream size                    : 521 MiB (23%)
Language                       : English
Service kind                   : Complete Main

截图




BT种子下载
梦幻天堂·龙网(www.LWgod.org).365天:明日之欲.黑帮大佬和我的365日3.torrent (23.39 KB, 下载次数: 17847)

0

主题

1万

帖子

1万

积分

神界龙王

Rank: 30Rank: 30Rank: 30Rank: 30

积分
17607
QQ
发表于 2023-11-16 15:40:18 | 显示全部楼层
感谢航子分享
一切终会过去

0

主题

502

帖子

2302

积分

赤血神龙

Rank: 20Rank: 20Rank: 20Rank: 20

积分
2302
发表于 2023-11-16 15:43:41 | 显示全部楼层
航子小姐姐太棒啦!
我爱看电影

2

主题

540

帖子

1551

积分

神龙

Rank: 15Rank: 15Rank: 15

积分
1551
发表于 2023-11-16 15:58:19 | 显示全部楼层
感谢航子分享+1
发表于 2023-11-16 16:00:49 | 显示全部楼层
感谢楼主分享

1

主题

523

帖子

1380

积分

神龙

Rank: 15Rank: 15Rank: 15

积分
1380
发表于 2023-11-16 16:01:51 | 显示全部楼层
感谢分享影片

0

主题

408

帖子

3387

积分

赤血神龙

Rank: 20Rank: 20Rank: 20Rank: 20

积分
3387
发表于 2023-11-16 16:19:08 | 显示全部楼层
楼主辛苦,多谢分享。

1

主题

810

帖子

2685

积分

赤血神龙

Rank: 20Rank: 20Rank: 20Rank: 20

积分
2685
QQ
发表于 2023-11-16 16:31:47 | 显示全部楼层
楼主辛苦,多谢分享。

1

主题

4846

帖子

6375

积分

海龙王

Rank: 25Rank: 25Rank: 25Rank: 25Rank: 25

积分
6375
发表于 2023-11-16 16:42:00 | 显示全部楼层
多谢楼主的分享哈哈

22

主题

6万

帖子

8万

积分

天地独尊龙王

梦幻天使

Rank: 33Rank: 33Rank: 33Rank: 33Rank: 33

积分
82925
发表于 2023-11-16 16:42:37 | 显示全部楼层
非常感谢航子分享精彩影片!

0

主题

5310

帖子

7265

积分

升龙霸·VIP

Rank: 22Rank: 22Rank: 22Rank: 22

积分
7265

龙网VIP·银勋

发表于 2023-11-16 16:44:35 | 显示全部楼层
感谢楼主分享

0

主题

3

帖子

7

积分

泡泡龙

Rank: 5Rank: 5Rank: 5

积分
7
发表于 2023-11-16 17:06:07 | 显示全部楼层
感谢分享。

0

主题

143

帖子

1351

积分

神龙

Rank: 15Rank: 15Rank: 15

积分
1351
发表于 2023-11-16 17:12:15 | 显示全部楼层
谢谢分享!!!

3

主题

788

帖子

1935

积分

升龙霸·VIP

Rank: 22Rank: 22Rank: 22Rank: 22

积分
1935

龙网VIP·银牌

发表于 2023-11-16 17:21:56 | 显示全部楼层

感谢航子分享

1

主题

2749

帖子

3923

积分

赤血神龙

Rank: 20Rank: 20Rank: 20Rank: 20

积分
3923
发表于 2023-11-16 17:58:13 | 显示全部楼层
楼主辛苦,多谢分享。
您需要登录后才可以回帖 登录 | 立即注册

本版积分规则

小黑屋|梦幻天堂·龙网

GMT+8, 2024-7-21 13:18 , Processed in 0.233934 second(s), 32 queries , Gzip On.

Powered by Discuz! X3.2

© 2001-2013 Comsenz Inc.

快速回复 返回顶部 返回列表