梦幻天堂·龙网

 找回密码
 立即注册
查看: 8285|回复: 89

[最新电影龙网转发] 【龙网转发】【大鹏林家栋张颂文2023】【第八个嫌疑人】【WebDL-2160p.MKV】【国语】

[复制链接]

2841

主题

3万

帖子

7万

积分

九鼎龙王·坛主

偶系漂漂滴龙民

Rank: 46Rank: 46Rank: 46Rank: 46Rank: 46Rank: 46

积分
75886

航子大神勋章

发表于 2023-11-18 18:53:40 | 显示全部楼层 |阅读模式
海报





译  名 第八个嫌疑人/第8个嫌疑人
片  名 Dust To Dust
年  代 2023
国  家 中国/中国香港
类  别 剧情/犯罪
语  言 汉语普通话/粤语
字  幕 中英硬字幕
评  分 6.1/10 from 126,854 users
链  接 https://movie.douban.com/subject/34436452
文件大小 4.10 GB
片  长 111 Min
导  演 李子俊 Jonathan Li
主  演 大鹏 Chengpeng Dong
     林家栋 Ka Tung Lam
     张颂文 Songwen Zhang
     齐溪 Xi Qi
     孙阳 Sunny Sun
     衣云鹤 Yunhe Yi
     邵胜杰 Shengjie Shao
     王梓尘 Zichen Wang
     徐锦明 Jinming Xu
     王建兵 Jianbing Wang
     刘占奎 Zhankui Liu

简介

  一九九五年,广东发生一起大型武装劫钞案,一辆银行运钞车被五名持枪匪徒抢劫,损失高达一千五百万,三名押钞员更在事件中丧生。事件震惊全国,公安局马上成立专案组,以王守月(林家栋 饰)和何蓝(张颂文 饰)为首的刑警迅速搜证,成功掌握五名抢匪去向并逐一拘捕。叫人意外的是,抢匪供出案件背后的真正策划者,竟是一家建筑公司的老板陈信文(大鹏 饰)及其堂弟陈欣年(孙阳 饰)。

  陈信文和陈欣年功败垂成,踏上逃亡之路,从此人间蒸发。时间一晃二十一年,当年的案件早已淡出大众的视野,王守月也从公安局退休。然而,一条寻常不过的视频上出现的一个模糊身影,却让他重燃破案的希望。王守月只身前往边境城市,寻找视频中的“陌生人”。最后的正邪对决,在二十一年后正式展开。

Video
Format                         : HEVC
Format/Info                    : High Efficiency Video Coding
Format profile                 : Main@L5@Main
Codec ID                       : V_MPEGH/ISO/HEVC
Duration                       : 1 h 51 min
Bit rate                       : 5 006 kb/s
Width                          : 3 840 pixels
Height                         : 1 608 pixels
Display aspect ratio           : 2.40:1
Frame rate mode                : Constant
Frame rate                     : 24.000 FPS
Color space                    : YUV
Chroma subsampling             : 4:2:0
Bit depth                      : 8 bits
Bits/(Pixel*Frame)             : 0.034
Stream size                    : 3.91 GiB (95%)

Audio
Format                         : E-AC-3
Format/Info                    : Enhanced AC-3
Commercial name                : Dolby Digital Plus
Codec ID                       : A_EAC3
Duration                       : 1 h 51 min
Bit rate mode                  : Constant
Bit rate                       : 256 kb/s
Channel(s)                     : 6 channels
Channel layout                 : L R C LFE Ls Rs
Sampling rate                  : 48.0 kHz
Frame rate                     : 31.250 FPS (1536 SPF)
Compression mode               : Lossy
Stream size                    : 205 MiB (5%)
Language                       : Chinese
Service kind                   : Complete Main

截图




BT种子下载
梦幻天堂·龙网(www.LWgod.org).第八个嫌疑人.第8个嫌疑人.torrent (21.81 KB, 下载次数: 3848)

19

主题

6万

帖子

7万

积分

天地独尊龙王

梦幻天使

Rank: 33Rank: 33Rank: 33Rank: 33Rank: 33

积分
76328
发表于 2023-11-18 19:15:43 | 显示全部楼层
非常感谢航子分享精彩影片!

0

主题

408

帖子

3387

积分

赤血神龙

Rank: 20Rank: 20Rank: 20Rank: 20

积分
3387
发表于 2023-11-18 19:41:44 | 显示全部楼层
楼主辛苦,多谢分享。

0

主题

2962

帖子

4222

积分

赤血神龙

Rank: 20Rank: 20Rank: 20Rank: 20

积分
4222
发表于 2023-11-18 19:59:53 | 显示全部楼层
感谢航子分享!

1

主题

491

帖子

1272

积分

神龙

Rank: 15Rank: 15Rank: 15

积分
1272
发表于 2023-11-18 20:40:01 | 显示全部楼层
谢谢分享电影

1

主题

1449

帖子

4388

积分

赤血神龙

Rank: 20Rank: 20Rank: 20Rank: 20

积分
4388
QQ
发表于 2023-11-18 20:52:31 | 显示全部楼层
tks for share.................

0

主题

216

帖子

427

积分

龙少爷

Rank: 10Rank: 10

积分
427
发表于 2023-11-18 21:20:46 | 显示全部楼层
感谢航子分享
看贴要回贴

946

主题

9575

帖子

1万

积分

神界龙王

Rank: 30Rank: 30Rank: 30Rank: 30

积分
13461
发表于 2023-11-18 21:22:32 | 显示全部楼层
感谢楼主分享

0

主题

274

帖子

716

积分

龙的传人

Rank: 13Rank: 13Rank: 13

积分
716
发表于 2023-11-18 21:59:36 | 显示全部楼层

一直在找的說!!
感謝樓主的分享囉!!

0

主题

2462

帖子

4109

积分

赤血神龙

Rank: 20Rank: 20Rank: 20Rank: 20

积分
4109
发表于 2023-11-18 22:07:40 | 显示全部楼层
感谢分享 下载收藏了

0

主题

9427

帖子

9893

积分

海龙王

Rank: 25Rank: 25Rank: 25Rank: 25Rank: 25

积分
9893
发表于 2023-11-18 22:10:04 | 显示全部楼层
听说片子很烂,可惜了林家栋张颂文,但依然支持国产。支持航子。感谢航子分享!

0

主题

1096

帖子

2041

积分

赤血神龙

Rank: 20Rank: 20Rank: 20Rank: 20

积分
2041
发表于 2023-11-18 22:21:20 | 显示全部楼层

感谢楼主分享

0

主题

386

帖子

2392

积分

赤血神龙

Rank: 20Rank: 20Rank: 20Rank: 20

积分
2392
发表于 2023-11-18 22:36:30 | 显示全部楼层
楼主辛苦,多谢分享。

0

主题

342

帖子

1335

积分

神龙

Rank: 15Rank: 15Rank: 15

积分
1335
发表于 2023-11-19 00:31:51 | 显示全部楼层
谢谢提供分享

1

主题

59

帖子

2675

积分

赤血神龙

Rank: 20Rank: 20Rank: 20Rank: 20

积分
2675
发表于 2023-11-19 05:49:06 | 显示全部楼层
thank you very much .
您需要登录后才可以回帖 登录 | 立即注册

本版积分规则

小黑屋|梦幻天堂·龙网

GMT+8, 2024-4-22 23:02 , Processed in 0.197975 second(s), 27 queries , Gzip On.

Powered by Discuz! X3.2

© 2001-2013 Comsenz Inc.

快速回复 返回顶部 返回列表