梦幻天堂·龙网

 找回密码
 立即注册
查看: 11664|回复: 93

[最新电影龙网转发] 【龙网转发】【韩国2023最新期待动作犯罪大片】【毒战2】【WebDL-1080p.MKV】【中字】

[复制链接]

2841

主题

3万

帖子

7万

积分

九鼎龙王·坛主

偶系漂漂滴龙民

Rank: 46Rank: 46Rank: 46Rank: 46Rank: 46Rank: 46

积分
75886

航子大神勋章

发表于 2023-11-19 18:42:20 | 显示全部楼层 |阅读模式
韩版毒战第一部的下载地址请点击这里

海报





译  名 毒战2/信徒2
片  名 Believer 2
年  代 2023
国  家 韩国
类  别 动作/犯罪/惊悚
语  言 韩语/汉语普通话
字  幕 中简/中繁
评  分 5.1/10 from 1,309 users
链  接 https://movie.douban.com/subject/35840171
文件大小 4.54 GB
片  长 114 Min
导  演 白宗烈 Jong-Yeol Baek
主  演 赵震雄 Cho Jin-woong
     车胜元 Seung-won Cha
     韩孝周 Hyo-joo Han
     吴承勋 Oh Seung-Hoon
     金东英 Dong-yeong Kim
     李周英 Joo-young Lee
     赵汉哲 Han-chul Jo
     马泰 Tzi Ma

简介

  这是一部Netflix犯罪动作片,围绕仍在追捕李先生的侦探元好(赵震雄 饰)、失踪的乐(吴承勋 饰)、重新出现的布莱恩(车胜元 饰)和从中国赶来解决问题的大刀(韩孝周 饰)展开,讲述了他们之间的致命战争。

Video
Format                         : AVC
Format/Info                    : Advanced Video Codec
Format profile                 : Main@L4
Format settings                : CABAC / 3 Ref Frames
Format settings, CABAC         : Yes
Format settings, Reference fra : 3 frames
Codec ID                       : V_MPEG4/ISO/AVC
Duration                       : 1 h 56 min
Bit rate mode                  : Variable
Bit rate                       : 5 000 kb/s
Maximum bit rate               : 7 500 kb/s
Width                          : 1 920 pixels
Height                         : 1 080 pixels
Display aspect ratio           : 16:9
Frame rate mode                : Constant
Frame rate                     : 23.976 (24000/1001) FPS
Color space                    : YUV
Chroma subsampling             : 4:2:0
Bit depth                      : 8 bits
Scan type                      : Progressive
Bits/(Pixel*Frame)             : 0.101
Stream size                    : 3.93 GiB (86%)

Audio
Format                         : E-AC-3 JOC
Format/Info                    : Enhanced AC-3 with Joint Object Coding
Commercial name                : Dolby Digital Plus with Dolby Atmos
Codec ID                       : A_EAC3
Duration                       : 1 h 54 min
Bit rate mode                  : Constant
Bit rate                       : 768 kb/s
Channel(s)                     : 6 channels
Channel layout                 : L R C LFE Ls Rs
Sampling rate                  : 48.0 kHz
Frame rate                     : 31.250 FPS (1536 SPF)
Bit depth                      : 32 bits
Compression mode               : Lossy
Stream size                    : 628 MiB (13%)
Language                       : Korean
Service kind                   : Complete Main

截图




BT种子下载
梦幻天堂·龙网(www.LWgod.org).毒战2.信徒2.torrent (24.08 KB, 下载次数: 5722)

0

主题

611

帖子

1624

积分

升龙霸·VIP

Rank: 22Rank: 22Rank: 22Rank: 22

积分
1624

龙网VIP·银徽龙网VIP·银牌

发表于 2023-11-19 19:15:42 | 显示全部楼层
第一部发的是1080P,第二部也发个1080P呗,方便收藏,感谢航子美女

0

主题

216

帖子

427

积分

龙少爷

Rank: 10Rank: 10

积分
427
发表于 2023-11-19 19:59:40 | 显示全部楼层
感谢航子分享
看贴要回贴

19

主题

6万

帖子

7万

积分

天地独尊龙王

梦幻天使

Rank: 33Rank: 33Rank: 33Rank: 33Rank: 33

积分
76328
发表于 2023-11-19 20:08:03 | 显示全部楼层
非常感谢航子分享精彩影片!

1

主题

733

帖子

2498

积分

赤血神龙

Rank: 20Rank: 20Rank: 20Rank: 20

积分
2498
QQ
发表于 2023-11-19 20:43:39 | 显示全部楼层
感谢航子分享

0

主题

408

帖子

3387

积分

赤血神龙

Rank: 20Rank: 20Rank: 20Rank: 20

积分
3387
发表于 2023-11-19 20:44:12 | 显示全部楼层
楼主辛苦,多谢分享。

1

主题

491

帖子

1272

积分

神龙

Rank: 15Rank: 15Rank: 15

积分
1272
发表于 2023-11-19 21:09:28 | 显示全部楼层
航子加油,继续努力,耶!

0

主题

4136

帖子

5933

积分

海龙王

Rank: 25Rank: 25Rank: 25Rank: 25Rank: 25

积分
5933
发表于 2023-11-19 21:09:30 | 显示全部楼层
欢迎航子回归哈

946

主题

9575

帖子

1万

积分

神界龙王

Rank: 30Rank: 30Rank: 30Rank: 30

积分
13461
发表于 2023-11-19 21:13:29 | 显示全部楼层
感谢楼主分享

1

主题

1449

帖子

4388

积分

赤血神龙

Rank: 20Rank: 20Rank: 20Rank: 20

积分
4388
QQ
发表于 2023-11-19 21:38:25 | 显示全部楼层
tks for share..............

0

主题

9433

帖子

9900

积分

海龙王

Rank: 25Rank: 25Rank: 25Rank: 25Rank: 25

积分
9900
发表于 2023-11-19 21:57:28 | 显示全部楼层
每一部都是精彩好戏发到龙网,感谢航子分享!,

0

主题

7206

帖子

8019

积分

霸王龙·贵宾

狱血黑龙

Rank: 18Rank: 18

积分
8019
发表于 2023-11-19 22:39:08 | 显示全部楼层
感谢航子的分享,支持支持
当你不再拥有的时候,你唯一可以做的,就是令自己不要忘记!

0

主题

2480

帖子

2624

积分

霸王龙·贵宾

Rank: 18Rank: 18

积分
2624
QQ
发表于 2023-11-19 22:44:11 | 显示全部楼层
感谢航子分享

一息尚存犹苦斗
不留点憾在人间

3

主题

842

帖子

1202

积分

神龙

Rank: 15Rank: 15Rank: 15

积分
1202
发表于 2023-11-20 00:09:53 | 显示全部楼层

感谢航子分享

7

主题

677

帖子

3443

积分

升龙霸·VIP

Rank: 22Rank: 22Rank: 22Rank: 22

积分
3443

龙网VIP·银牌龙网VIP·银章

发表于 2023-11-20 00:27:17 | 显示全部楼层
谢谢分享
您需要登录后才可以回帖 登录 | 立即注册

本版积分规则

小黑屋|梦幻天堂·龙网

GMT+8, 2024-4-22 23:41 , Processed in 0.362921 second(s), 29 queries , Gzip On.

Powered by Discuz! X3.2

© 2001-2013 Comsenz Inc.

快速回复 返回顶部 返回列表