梦幻天堂·龙网

 找回密码
 立即注册
查看: 33685|回复: 176

[最新电影龙网转发] 【龙网转发】【港2023众星】【女囚风暴1995.未删减港版】【WebDL-1080p.MKV】【中字】

  [复制链接]

2841

主题

3万

帖子

7万

积分

九鼎龙王·坛主

偶系漂漂滴龙民

Rank: 46Rank: 46Rank: 46Rank: 46Rank: 46Rank: 46

积分
75886

航子大神勋章

发表于 2023-11-21 15:19:18 | 显示全部楼层 |阅读模式
此为88分钟的未删减完整版!不过目前只有粤语音轨,没有国语音轨!

海报





译  名 女囚风暴1995/女子监狱
片  名 Prison Flowers
年  代 2023
国  家 中国香港
类  别 动作/剧情
语  言 粤语
字  幕 中简/中繁
评  分 6.6/10 from 56 users
链  接 https://www.imdb.com/title/tt28814576
文件大小 3.66 GB
片  长 88 Min
导  演 吕美凤 Mei-Fung Lui
主  演 周秀娜 Chrissie Chaw
     钟欣潼 Gillian Chung
     吴千语 Karena Ng
     吴家丽 Carrie Ng
     陈滢 Jeannie Chan
     陈庭欣 Toby Chan
     夏嫣 Yan Xia
     郭奕芯 Ashina Kwok
     袁嘉敏 Candy Yuen
     陈嘉莉 Kelly Chen
     李彩桦 Rain Li

简介

  做生意的女强人顶姐因签错文件入狱,一开始就与狱中的前辈波嫂发生冲突,又不喜监狱管理制度,被人孤立。凯莉主动帮助她适应新环境,更因此结识了为人善良,心系女儿又照顾狱中姐妹的博妈。为解决狱中卫生巾不足的问题,顶姐发挥做生意的头脑、与博妈利用各工队协助的力量,尽力为狱友们解决问题,并协力维护和平的女监环境,顶姐更因此赢得了大家的欢迎。但没想到,女监恶霸劏猪环再度入狱,马上破坏了监狱的和谐。为了成为狱中老大,劏猪环设局陷害顶姐和波嫂,令原本对立的二人被罚独立囚禁一星期。两人于这期间难得地交心言谈,拉近了彼此的距离并成为知心好友。博妈即将出狱,却意外发现女儿波波入狱。波波埋怨博妈多年没尽到母亲的责任,不愿与博妈亲近,博妈悲痛万分。在一次劏猪环责难波波泄愤期间,博妈为了保护波波而去世。此举激怒了波波和众人,她们决心共同抵制劏猪环、让监狱回到往日的和平与宁静。波波最终化解了与母亲博妈多年的心结,顶姐和波嫂也明白幸福得靠自己争取。众人在这段监狱生活中,最终悟到人生的缺失,也寻得自己的追求。

Video
Format                         : AVC
Format/Info                    : Advanced Video Codec
Format profile                 : High@L4
Format settings                : CABAC / 4 Ref Frames
Format settings, CABAC         : Yes
Format settings, Reference fra : 4 frames
Codec ID                       : V_MPEG4/ISO/AVC
Duration                       : 1 h 27 min
Bit rate mode                  : Variable
Bit rate                       : 5 701 kb/s
Maximum bit rate               : 12.7 Mb/s
Width                          : 1 920 pixels
Height                         : 1 080 pixels
Display aspect ratio           : 16:9
Frame rate mode                : Constant
Frame rate                     : 24.000 FPS
Color space                    : YUV
Chroma subsampling             : 4:2:0
Bit depth                      : 8 bits
Scan type                      : Progressive
Bits/(Pixel*Frame)             : 0.115
Stream size                    : 3.50 GiB (95%)
Color range                    : Limited
Color primaries                : BT.709
Transfer characteristics       : BT.709
Matrix coefficients            : BT.709

Audio
Format                         : E-AC-3
Format/Info                    : Enhanced AC-3
Commercial name                : Dolby Digital Plus
Codec ID                       : A_EAC3
Duration                       : 1 h 27 min
Bit rate mode                  : Constant
Bit rate                       : 256 kb/s
Channel(s)                     : 6 channels
Channel layout                 : L R C LFE Ls Rs
Sampling rate                  : 48.0 kHz
Frame rate                     : 31.250 FPS (1536 SPF)
Compression mode               : Lossy
Stream size                    : 161 MiB (4%)
Language                       : Chinese
Service kind                   : Complete Main

截图




BT种子下载
梦幻天堂·龙网(www.LWgod.org).女囚风暴1995.女子监狱.未删减港版.torrent (25.82 KB, 下载次数: 11140)

0

主题

408

帖子

3387

积分

赤血神龙

Rank: 20Rank: 20Rank: 20Rank: 20

积分
3387
发表于 2023-11-21 16:01:14 | 显示全部楼层
楼主辛苦,多谢分享。

1

主题

491

帖子

1272

积分

神龙

Rank: 15Rank: 15Rank: 15

积分
1272
发表于 2023-11-21 16:05:08 | 显示全部楼层
谢谢航子分享影片

19

主题

6万

帖子

7万

积分

天地独尊龙王

梦幻天使

Rank: 33Rank: 33Rank: 33Rank: 33Rank: 33

积分
76328
发表于 2023-11-21 16:10:09 | 显示全部楼层
非常感谢航子分享精彩影片!

1

主题

62

帖子

107

积分

龙之子

Rank: 8Rank: 8Rank: 8Rank: 8

积分
107
发表于 2023-11-21 16:19:06 | 显示全部楼层
等了好久终于更新了

1

主题

733

帖子

2498

积分

赤血神龙

Rank: 20Rank: 20Rank: 20Rank: 20

积分
2498
QQ
发表于 2023-11-21 16:26:53 | 显示全部楼层
没删减的是什么东东

946

主题

9575

帖子

1万

积分

神界龙王

Rank: 30Rank: 30Rank: 30Rank: 30

积分
13461
发表于 2023-11-21 16:34:35 | 显示全部楼层
感谢楼主分享

0

主题

80

帖子

155

积分

龙之子

Rank: 8Rank: 8Rank: 8Rank: 8

积分
155
发表于 2023-11-21 17:10:35 | 显示全部楼层
楼主辛苦,感谢分享

1

主题

124

帖子

643

积分

龙的传人

Rank: 13Rank: 13Rank: 13

积分
643
发表于 2023-11-21 17:38:36 | 显示全部楼层
楼主辛苦,感谢分享!!

1

主题

572

帖子

2072

积分

赤血神龙

Rank: 20Rank: 20Rank: 20Rank: 20

积分
2072
发表于 2023-11-21 17:52:15 | 显示全部楼层
感谢航子发片

0

主题

8388

帖子

1万

积分

神界龙王

Rank: 30Rank: 30Rank: 30Rank: 30

积分
12315
发表于 2023-11-21 18:06:00 | 显示全部楼层

0

主题

836

帖子

2081

积分

赤血神龙

Rank: 20Rank: 20Rank: 20Rank: 20

积分
2081
发表于 2023-11-21 18:15:29 | 显示全部楼层
感谢分享!辛苦了!

1

主题

1449

帖子

4388

积分

赤血神龙

Rank: 20Rank: 20Rank: 20Rank: 20

积分
4388
QQ
发表于 2023-11-21 19:18:09 | 显示全部楼层
tks for share................

0

主题

136

帖子

2689

积分

赤血神龙

Rank: 20Rank: 20Rank: 20Rank: 20

积分
2689
发表于 2023-11-21 19:20:14 | 显示全部楼层
多谢分享,终于等到粤语港版

0

主题

189

帖子

1278

积分

神龙

Rank: 15Rank: 15Rank: 15

积分
1278
发表于 2023-11-21 19:33:21 | 显示全部楼层
谢谢航子分享,辛苦了
您需要登录后才可以回帖 登录 | 立即注册

本版积分规则

小黑屋|梦幻天堂·龙网

GMT+8, 2024-4-23 00:41 , Processed in 0.224215 second(s), 29 queries , Gzip On.

Powered by Discuz! X3.2

© 2001-2013 Comsenz Inc.

快速回复 返回顶部 返回列表