梦幻天堂·龙网

 找回密码
 立即注册
查看: 18282|回复: 101

[最新电影龙网转发] 【龙网转发】【法2023超高分获奖年度杰作】【坠落的审判】【WebDL-720p.MKV】【中字】

[复制链接]

2841

主题

3万

帖子

7万

积分

九鼎龙王·坛主

偶系漂漂滴龙民

Rank: 46Rank: 46Rank: 46Rank: 46Rank: 46Rank: 46

积分
75886

航子大神勋章

发表于 2023-11-26 15:34:11 | 显示全部楼层 |阅读模式
目前只有720p版,并且带有英文硬字幕,无法去除
本片荣获2023年第76届戛纳电影节金棕榈奖,年度最具突破性杰作!


海报





译  名 坠落的审判/坠楼死亡的剖析/一场坠楼的剖析/坠落的剖析
片  名 Anatomy of a Fall
年  代 2023
国  家 法国
类  别 剧情/家庭
语  言 法语/英语/德语
字  幕 中简/中繁
评  分 8.5/10 from 60,808 users
链  接 https://movie.douban.com/subject/35633650
文件大小 2.24 GB
片  长 151 Min
导  演 茹斯汀·特里耶 Justine Triet
主  演 桑德拉·惠勒 Sandra Huller
     斯万·阿劳德 Swann Arlaud
     米洛·马查多·格拉纳 Milo Machado Graner
     安托万·赖纳茨 Antoine Reinartz
     塞缪尔·泰斯 Samuel Theis
     珍妮·贝丝 Jehnny Beth
     莎迪娅·本太耶布 Saadia Bentaieb
     卡米莉·拉瑟福德 Camille Rutherford
     安妮·罗特格 Anne Rotger
     索菲亚·菲力瑞斯 Sophie Fillieres
     梅西 Messi

简介

  桑德拉、萨姆尔以及他们视力有障碍的儿子丹尼尔在偏远山区生活了一年。一天,萨姆尔在房子外面被发现死亡,警方立即展开了涉嫌命案的调查。在不确定的情况下,桑德拉被控:这是自杀还是谋杀?一年后,丹尼尔参加了母亲的审判,这也是对他父母关系的真正剖析。

Video
Format                         : AVC
Format/Info                    : Advanced Video Codec
Format profile                 : High @ L3.2
Format settings                : CABAC / 5 Ref Frames
Format settings, CABAC         : Yes
Format settings, Reference fra : 5 frames
Codec ID                       : V_MPEG4/ISO/AVC
Duration                       : 2 h 31 min
Bit rate                       : 1 923 kb/s
Width                          : 1 280 pixels
Height                         : 690 pixels
Display aspect ratio           : 1.85:1
Frame rate mode                : Constant
Frame rate                     : 24.000 FPS
Color space                    : YUV
Chroma subsampling             : 4:2:0
Bit depth                      : 8 bits
Scan type                      : Progressive
Bits/(Pixel*Frame)             : 0.091
Stream size                    : 2.03 GiB (91%)
Color range                    : Limited
Color primaries                : BT.709
Transfer characteristics       : BT.709
Matrix coefficients            : BT.709

Audio
Format                         : AAC LC
Format/Info                    : Advanced Audio Codec Low Complexity
Codec ID                       : A_AAC-2
Duration                       : 2 h 31 min
Bit rate                       : 192 kb/s
Channel(s)                     : 2 channels
Channel layout                 : L R
Sampling rate                  : 48.0 kHz
Frame rate                     : 46.875 FPS (1024 SPF)
Compression mode               : Lossy
Stream size                    : 205 MiB (9%)

截图




BT种子下载
梦幻天堂·龙网(www.LWgod.org).坠落的审判.坠楼死亡的剖析.torrent (23.81 KB, 下载次数: 2533)

946

主题

9575

帖子

1万

积分

神界龙王

Rank: 30Rank: 30Rank: 30Rank: 30

积分
13461
发表于 2023-11-26 16:22:43 | 显示全部楼层
感谢楼主分享

0

主题

408

帖子

3387

积分

赤血神龙

Rank: 20Rank: 20Rank: 20Rank: 20

积分
3387
发表于 2023-11-26 16:27:37 | 显示全部楼层
楼主辛苦,多谢分享。

0

主题

200

帖子

339

积分

龙少爷

Rank: 10Rank: 10

积分
339
发表于 2023-11-26 16:31:40 | 显示全部楼层
这个貌似评分很高,感谢航子分享

1

主题

491

帖子

1272

积分

神龙

Rank: 15Rank: 15Rank: 15

积分
1272
发表于 2023-11-26 16:37:39 | 显示全部楼层
感谢分享,希望今后有1080P的蓝光版

19

主题

6万

帖子

7万

积分

天地独尊龙王

梦幻天使

Rank: 33Rank: 33Rank: 33Rank: 33Rank: 33

积分
76328
发表于 2023-11-26 17:01:40 | 显示全部楼层
非常感谢航子分享精彩影片!

0

主题

836

帖子

2081

积分

赤血神龙

Rank: 20Rank: 20Rank: 20Rank: 20

积分
2081
发表于 2023-11-26 17:04:56 | 显示全部楼层
感谢分享!辛苦了!

0

主题

1万

帖子

1万

积分

神界龙王

Rank: 30Rank: 30Rank: 30Rank: 30

积分
16352
QQ
发表于 2023-11-26 17:21:54 | 显示全部楼层
感谢航子分享
一切终会过去

1

主题

733

帖子

2498

积分

赤血神龙

Rank: 20Rank: 20Rank: 20Rank: 20

积分
2498
QQ
发表于 2023-11-26 17:35:01 | 显示全部楼层
感谢分享好片

0

主题

6901

帖子

7745

积分

海龙王

Rank: 25Rank: 25Rank: 25Rank: 25Rank: 25

积分
7745
发表于 2023-11-26 17:41:12 | 显示全部楼层
楼主辛苦,多谢分享。

1

主题

1449

帖子

4388

积分

赤血神龙

Rank: 20Rank: 20Rank: 20Rank: 20

积分
4388
QQ
发表于 2023-11-26 17:53:24 | 显示全部楼层
tks for share................

0

主题

263

帖子

2834

积分

赤血神龙

Rank: 20Rank: 20Rank: 20Rank: 20

积分
2834
发表于 2023-11-26 18:39:15 | 显示全部楼层
感谢航子,辛苦发片!

0

主题

2962

帖子

4222

积分

赤血神龙

Rank: 20Rank: 20Rank: 20Rank: 20

积分
4222
发表于 2023-11-26 18:44:14 | 显示全部楼层
感谢航子分享!

0

主题

540

帖子

1362

积分

神龙

Rank: 15Rank: 15Rank: 15

积分
1362
发表于 2023-11-26 19:23:05 | 显示全部楼层
THANKS FOR SHARING!

0

主题

69

帖子

149

积分

龙之子

Rank: 8Rank: 8Rank: 8Rank: 8

积分
149
发表于 2023-11-26 19:59:14 | 显示全部楼层
航子辛苦!
您需要登录后才可以回帖 登录 | 立即注册

本版积分规则

小黑屋|梦幻天堂·龙网

GMT+8, 2024-4-22 23:25 , Processed in 0.227572 second(s), 29 queries , Gzip On.

Powered by Discuz! X3.2

© 2001-2013 Comsenz Inc.

快速回复 返回顶部 返回列表