梦幻天堂·龙网

 找回密码
 立即注册
查看: 46704|回复: 273

[最新电影龙网转发] 【龙网转发】【超大尺度限制级】【一个女孩和一个男孩】【WebDL-1080p.MKV】【中字】

  [复制链接]

2841

主题

3万

帖子

7万

积分

九鼎龙王·坛主

偶系漂漂滴龙民

Rank: 46Rank: 46Rank: 46Rank: 46Rank: 46Rank: 46

积分
75886

航子大神勋章

发表于 2023-11-28 15:31:12 | 显示全部楼层 |阅读模式
海报





译  名 一个女孩和一个男孩
片  名 A Girl and A Guy
年  代 2021
国  家 菲律宾
类  别 喜剧/爱情
语  言 他加禄语/英语
字  幕 中简/中繁
评  分 5.2/10 from 646 users
链  接 https://movie.douban.com/subject/35543613
文件大小 3.56 GB
片  长 130 Min
导  演 埃里克·马蒂 Erik Matti
主  演 Rosh Barman
     Pau Benitez
     Yvanne Evangelista
     Rob Gomez
     Sarah Holmes
     Alexa Miro
     Candice Ramos
     Juan Carlo Tarobal

简介

  《一个女孩和一个男人》是一个现代故事,讲述了年轻人在当今社会中艰难的人际关系、联系和亲密关系世界中的故事。这部电影讲述了一个女孩的故事,一个男孩的故事,以及一个女孩和一个男孩之间的故事。

Video
Format                         : AVC
Format/Info                    : Advanced Video Codec
Format profile                 : High@L4
Format settings                : CABAC / 4 Ref Frames
Format settings, CABAC         : Yes
Format settings, Reference fra : 4 frames
Codec ID                       : V_MPEG4/ISO/AVC
Duration                       : 2 h 10 min
Bit rate mode                  : Variable
Bit rate                       : 3 254 kb/s
Maximum bit rate               : 20.0 Mb/s
Width                          : 1 920 pixels
Height                         : 1 080 pixels
Display aspect ratio           : 16:9
Frame rate mode                : Constant
Frame rate                     : 23.976 (24000/1001) FPS
Color space                    : YUV
Chroma subsampling             : 4:2:0
Bit depth                      : 8 bits
Scan type                      : Progressive
Bits/(Pixel*Frame)             : 0.065
Stream size                    : 2.97 GiB (83%)

Audio
Format                         : E-AC-3
Format/Info                    : Enhanced AC-3
Commercial name                : Dolby Digital Plus
Codec ID                       : A_EAC3
Duration                       : 2 h 10 min
Bit rate mode                  : Constant
Bit rate                       : 640 kb/s
Channel(s)                     : 6 channels
Channel layout                 : L R C LFE Ls Rs
Sampling rate                  : 48.0 kHz
Frame rate                     : 31.250 FPS (1536 SPF)
Compression mode               : Lossy
Stream size                    : 598 MiB (16%)
Service kind                   : Complete Main

截图












BT种子下载
梦幻天堂·龙网(www.LWgod.org).一个女孩和一个男孩.torrent (25.11 KB, 下载次数: 34055)

1

主题

37

帖子

145

积分

龙之子

Rank: 8Rank: 8Rank: 8Rank: 8

积分
145
发表于 2023-11-28 16:02:32 | 显示全部楼层
沙发,感谢大大的付出

1

主题

491

帖子

1272

积分

神龙

Rank: 15Rank: 15Rank: 15

积分
1272
发表于 2023-11-28 16:11:47 | 显示全部楼层
很好很好,感谢航子

1

主题

733

帖子

2498

积分

赤血神龙

Rank: 20Rank: 20Rank: 20Rank: 20

积分
2498
QQ
发表于 2023-11-28 16:19:48 | 显示全部楼层
谢谢分享高清

0

主题

408

帖子

3387

积分

赤血神龙

Rank: 20Rank: 20Rank: 20Rank: 20

积分
3387
发表于 2023-11-28 16:20:11 | 显示全部楼层
楼主辛苦,多谢分享。

0

主题

169

帖子

363

积分

龙少爷

Rank: 10Rank: 10

积分
363
发表于 2023-11-28 16:43:34 | 显示全部楼层
楼主辛苦,多谢分享。

946

主题

9575

帖子

1万

积分

神界龙王

Rank: 30Rank: 30Rank: 30Rank: 30

积分
13461
发表于 2023-11-28 17:03:32 | 显示全部楼层
感谢航子分享

0

主题

8388

帖子

1万

积分

神界龙王

Rank: 30Rank: 30Rank: 30Rank: 30

积分
12315
发表于 2023-11-28 17:32:27 | 显示全部楼层

0

主题

909

帖子

2263

积分

赤血神龙

Rank: 20Rank: 20Rank: 20Rank: 20

积分
2263

龙网爱心勋章

发表于 2023-11-28 17:40:02 | 显示全部楼层
航子辛苦……..

0

主题

122

帖子

196

积分

龙之子

Rank: 8Rank: 8Rank: 8Rank: 8

积分
196
发表于 2023-11-28 18:10:51 | 显示全部楼层
支持一下,看好片。

19

主题

6万

帖子

7万

积分

天地独尊龙王

梦幻天使

Rank: 33Rank: 33Rank: 33Rank: 33Rank: 33

积分
76328
发表于 2023-11-28 18:33:48 | 显示全部楼层
非常感谢航子分享精彩影片!

1

主题

1449

帖子

4388

积分

赤血神龙

Rank: 20Rank: 20Rank: 20Rank: 20

积分
4388
QQ
发表于 2023-11-28 18:44:23 | 显示全部楼层
tks for share.................

0

主题

2962

帖子

4222

积分

赤血神龙

Rank: 20Rank: 20Rank: 20Rank: 20

积分
4222
发表于 2023-11-28 18:46:48 | 显示全部楼层
感谢航子分享!

0

主题

836

帖子

2081

积分

赤血神龙

Rank: 20Rank: 20Rank: 20Rank: 20

积分
2081
发表于 2023-11-28 19:22:08 | 显示全部楼层
感谢分享!辛苦了!

1

主题

4496

帖子

6285

积分

海龙王

Rank: 25Rank: 25Rank: 25Rank: 25Rank: 25

积分
6285
发表于 2023-11-28 19:24:24 | 显示全部楼层
感谢楼主分享!!!!!
您需要登录后才可以回帖 登录 | 立即注册

本版积分规则

小黑屋|梦幻天堂·龙网

GMT+8, 2024-4-22 23:56 , Processed in 0.207754 second(s), 27 queries , Gzip On.

Powered by Discuz! X3.2

© 2001-2013 Comsenz Inc.

快速回复 返回顶部 返回列表