梦幻天堂·龙网

 找回密码
 立即注册
查看: 11103|回复: 127

[最新电影龙网转发] 【龙网转发】【中2023万众期待高分票房】【长安三万里】【WebDL-2160p.MKV】【国语】

  [复制链接]

2841

主题

3万

帖子

7万

积分

九鼎龙王·坛主

偶系漂漂滴龙民

Rank: 46Rank: 46Rank: 46Rank: 46Rank: 46Rank: 46

积分
75886

航子大神勋章

发表于 2023-11-29 15:05:24 | 显示全部楼层 |阅读模式
海报





译  名 长安三万里
片  名 Chang An
年  代 2023
国  家 中国
类  别 动画/历史
语  言 汉语普通话
字  幕 中英硬字幕
评  分 8.3/10 from 528,386 users
链  接 https://movie.douban.com/subject/36035676
文件大小 7.94 GB
片  长 168 Min
导  演 谢君伟 Junwei Xie
     邹靖 Jing Zou
主  演 杨天翔 Tianxiang Yang
     凌振赫 Zhenhe Ling
     吴俊全 Junquan Wu
     宣晓鸣 Xiaoming Xuan
     卢力峰 Lifeng Lu
     孙路路 Lulu Sun
     刘校妤 Xiaoyu Liu
     路熙然 Xiran Lu
     李诗萌 Shimeng Li
     胡亚捷 Yajie Hu
     巴赫 He Ba

简介

  安史之乱爆发后数年,吐蕃大军攻打西南。大唐节度使高适交战不利,长安岌岌可危。困守孤城的高适向监军太监回忆起自己与李白的一生往事。

Video
Format                         : HEVC
Format/Info                    : High Efficiency Video Coding
Format profile                 : Main @ L5.1 @ Main
Codec ID                       : V_MPEGH/ISO/HEVC
Duration                       : 2 h 47 min
Bit rate                       : 6 519 kb/s
Width                          : 3 840 pixels
Height                         : 1 608 pixels
Display aspect ratio           : 2.40:1
Frame rate mode                : Constant
Frame rate                     : 60.000 FPS
Color space                    : YUV
Chroma subsampling             : 4:2:0
Bit depth                      : 8 bits
Bits/(Pixel*Frame)             : 0.018
Stream size                    : 7.64 GiB (96%)

Audio
Format                         : E-AC-3
Format/Info                    : Enhanced AC-3
Commercial name                : Dolby Digital Plus
Codec ID                       : A_EAC3
Duration                       : 2 h 47 min
Bit rate mode                  : Constant
Bit rate                       : 256 kb/s
Channel(s)                     : 6 channels
Channel layout                 : L R C LFE Ls Rs
Sampling rate                  : 48.0 kHz
Frame rate                     : 31.250 FPS (1536 SPF)
Compression mode               : Lossy
Stream size                    : 307 MiB (4%)
Language                       : Chinese
Service kind                   : Complete Main

截图




BT种子下载
梦幻天堂·龙网(www.LWgod.org).长安三万里.torrent (41.1 KB, 下载次数: 11757)

0

主题

408

帖子

3387

积分

赤血神龙

Rank: 20Rank: 20Rank: 20Rank: 20

积分
3387
发表于 2023-11-29 16:02:10 | 显示全部楼层
楼主辛苦,多谢分享。

0

主题

223

帖子

488

积分

龙少爷

Rank: 10Rank: 10

积分
488
发表于 2023-11-29 16:03:37 | 显示全部楼层
楼主辛苦,多谢分享。

19

主题

6万

帖子

7万

积分

天地独尊龙王

梦幻天使

Rank: 33Rank: 33Rank: 33Rank: 33Rank: 33

积分
76328
发表于 2023-11-29 16:04:48 | 显示全部楼层
非常感谢航子分享精彩影片!

1

主题

491

帖子

1272

积分

神龙

Rank: 15Rank: 15Rank: 15

积分
1272
发表于 2023-11-29 16:14:56 | 显示全部楼层
感谢分享影片

0

主题

33

帖子

74

积分

龙之子

Rank: 8Rank: 8Rank: 8Rank: 8

积分
74
发表于 2023-11-29 16:21:25 | 显示全部楼层
感谢分享影片,辛苦了

946

主题

9575

帖子

1万

积分

神界龙王

Rank: 30Rank: 30Rank: 30Rank: 30

积分
13461
发表于 2023-11-29 16:24:41 | 显示全部楼层
感谢航子分享

0

主题

872

帖子

1323

积分

神龙

Rank: 15Rank: 15Rank: 15

积分
1323
发表于 2023-11-29 16:28:27 | 显示全部楼层
感谢分享影片,辛苦了

0

主题

200

帖子

649

积分

龙的传人

Rank: 13Rank: 13Rank: 13

积分
649
发表于 2023-11-29 16:39:18 | 显示全部楼层
666666666666

1

主题

733

帖子

2498

积分

赤血神龙

Rank: 20Rank: 20Rank: 20Rank: 20

积分
2498
QQ
发表于 2023-11-29 16:57:27 | 显示全部楼层
大片大片大片

0

主题

4948

帖子

6774

积分

海龙王

Rank: 25Rank: 25Rank: 25Rank: 25Rank: 25

积分
6774
发表于 2023-11-29 17:42:00 | 显示全部楼层

感谢航子分享

0

主题

2962

帖子

4222

积分

赤血神龙

Rank: 20Rank: 20Rank: 20Rank: 20

积分
4222
发表于 2023-11-29 18:00:25 | 显示全部楼层
感谢航子分享!

1

主题

1449

帖子

4388

积分

赤血神龙

Rank: 20Rank: 20Rank: 20Rank: 20

积分
4388
QQ
发表于 2023-11-29 18:21:20 | 显示全部楼层
tks for share................

0

主题

611

帖子

1624

积分

升龙霸·VIP

Rank: 22Rank: 22Rank: 22Rank: 22

积分
1624

龙网VIP·银徽龙网VIP·银牌

发表于 2023-11-29 19:16:57 | 显示全部楼层
追光动画必须等1080P啊,跪求《白蛇2:青蛇劫起》《新神榜:哪吒重生》《新神榜:杨戬》1080P
感谢航子美女!

0

主题

69

帖子

149

积分

龙之子

Rank: 8Rank: 8Rank: 8Rank: 8

积分
149
发表于 2023-11-29 19:44:14 | 显示全部楼层
love gang zi forever.
您需要登录后才可以回帖 登录 | 立即注册

本版积分规则

小黑屋|梦幻天堂·龙网

GMT+8, 2024-4-23 00:31 , Processed in 0.194867 second(s), 27 queries , Gzip On.

Powered by Discuz! X3.2

© 2001-2013 Comsenz Inc.

快速回复 返回顶部 返回列表