梦幻天堂·龙网

 找回密码
 立即注册
查看: 15632|回复: 105

[最新剧集龙网转发] 【龙网转发】【中2023超高分必看】【漫长的季节.全12集】【WebDL-2160p.MKV】【国语】

  [复制链接]

2881

主题

3万

帖子

7万

积分

九鼎龙王·坛主

偶系漂漂滴龙民

Rank: 46Rank: 46Rank: 46Rank: 46Rank: 46Rank: 46

积分
76023

航子大神勋章

发表于 2023-12-1 14:34:51 | 显示全部楼层 |阅读模式
2023最强热剧!强烈推荐!人人必看!

海报





译  名 漫长的季节/凛冬之刃
片  名 The Long Season
年  代 2023
国  家 中国
类  别 剧情/家庭/犯罪
语  言 汉语普通话
字  幕 中文硬字幕
评  分 9.4/10 from 879,223 users
链  接 https://movie.douban.com/subject/35588177
文件大小 6.23 GB
单集片长 60 Min
集  数 12
导  演 辛爽 Shuang Xin
主  演 范伟 Wei Fan
     秦昊 Hao Qin
     陈明昊 Minghao Chen
     李庚希 Gengxi Li
     刘奕铁 Yitie Liu
     蒋奇明 Qiming Jiang
     刘琳 Lin Liu
     史彭元 Pengyuan Shi
     侯岩松 Yansong Hou
     林晓杰 Diana Lin
     王佳佳 Jiajia Wang

简介

  20世纪90年代,东北小镇桦林,意外出现的碎尸块引起轰动。炼钢厂工人刘响(范伟 饰)一辈子勤勤恳恳,坚守原则,却面临着首批下岗的残酷现实。为了能立功留在厂里,他积极配合警方的调查,与此同时则忽略了儿子王阳(刘奕铁 饰)的反常变化。高考落榜的王阳此前喜欢上了美丽清纯的女大学生沈墨(李庚希 饰),他的赤诚与才情慢慢开启女孩的心扉。沈墨来自一个畸形的原生家庭,为了生计她在某家歌舞厅弹琴打工,却无法抵抗命运的嘲弄和戕害。经警方初步推断,碎尸案受害者可能正与失踪的沈墨以及一名港商有关。

  寒冷的北方,阴云密布。绝望的人心,也曾在某一时刻被温暖的光芒短暂照拂……

Video
Format                         : HEVC
Format/Info                    : High Efficiency Video Coding
Format profile                 : Main@L5@Main
Codec ID                       : V_MPEGH/ISO/HEVC
Duration                       : 1 h 12 min
Bit rate                       : 1 256 kb/s
Width                          : 3 840 pixels
Height                         : 1 608 pixels
Display aspect ratio           : 2.40:1
Frame rate mode                : Constant
Frame rate                     : 25.000 FPS
Color space                    : YUV
Chroma subsampling             : 4:2:0
Bit depth                      : 8 bits
Bits/(Pixel*Frame)             : 0.008
Stream size                    : 650 MiB (91%)

Audio
Format                         : AAC LC
Format/Info                    : Advanced Audio Codec Low Complexity
Codec ID                       : A_AAC-2
Duration                       : 1 h 12 min
Bit rate                       : 125 kb/s
Channel(s)                     : 2 channels
Channel layout                 : L R
Sampling rate                  : 48.0 kHz
Frame rate                     : 46.875 FPS (1024 SPF)
Compression mode               : Lossy
Delay relative to video        : -42 ms
Stream size                    : 64.9 MiB (9%)

截图




BT种子下载
梦幻天堂·龙网(www.LWgod.org).漫长的季节.凛冬之刃.全12集.torrent (33.73 KB, 下载次数: 3687)

0

主题

408

帖子

3387

积分

赤血神龙

Rank: 20Rank: 20Rank: 20Rank: 20

积分
3387
发表于 2023-12-1 15:09:28 | 显示全部楼层
楼主辛苦,多谢分享。

0

主题

1万

帖子

1万

积分

神界龙王

Rank: 30Rank: 30Rank: 30Rank: 30

积分
17209
QQ
发表于 2023-12-1 15:20:24 | 显示全部楼层
感谢航子分享
一切终会过去

0

主题

454

帖子

890

积分

龙的传人

Rank: 13Rank: 13Rank: 13

积分
890
发表于 2023-12-1 15:29:49 | 显示全部楼层
感谢航子的分享!

0

主题

282

帖子

769

积分

龙的传人

Rank: 13Rank: 13Rank: 13

积分
769
发表于 2023-12-1 15:34:54 | 显示全部楼层

感謝樓主的分享囉!!

2

主题

573

帖子

2363

积分

升龙霸·VIP

Rank: 22Rank: 22Rank: 22Rank: 22

积分
2363

赞助会员 LV2龙网VIP·银星龙网VIP·银牌龙网VIP·银章

发表于 2023-12-1 15:40:52 | 显示全部楼层
看过,不错!

1

主题

523

帖子

1354

积分

神龙

Rank: 15Rank: 15Rank: 15

积分
1354
发表于 2023-12-1 16:00:23 | 显示全部楼层
十分感谢分享剧集

21

主题

6万

帖子

8万

积分

天地独尊龙王

梦幻天使

Rank: 33Rank: 33Rank: 33Rank: 33Rank: 33

积分
82230
发表于 2023-12-1 16:10:29 | 显示全部楼层
非常感谢航子分享精彩影片!

0

主题

3442

帖子

4848

积分

赤血神龙

Rank: 20Rank: 20Rank: 20Rank: 20

积分
4848
发表于 2023-12-1 18:21:21 | 显示全部楼层
感谢航子分享!

1

主题

1485

帖子

4491

积分

赤血神龙

Rank: 20Rank: 20Rank: 20Rank: 20

积分
4491
QQ
发表于 2023-12-1 18:33:53 | 显示全部楼层
tks for share.............

1

主题

4682

帖子

6536

积分

海龙王

Rank: 25Rank: 25Rank: 25Rank: 25Rank: 25

积分
6536
发表于 2023-12-1 18:57:16 | 显示全部楼层
感谢楼主分享!!!!

4

主题

570

帖子

2715

积分

赤血神龙

Rank: 20Rank: 20Rank: 20Rank: 20

积分
2715

龙网爱心勋章

QQ
发表于 2023-12-1 19:38:55 | 显示全部楼层
能不能发一下狂飙
生活不容易

0

主题

977

帖子

1712

积分

神龙

Rank: 15Rank: 15Rank: 15

积分
1712
发表于 2023-12-1 20:27:28 | 显示全部楼层
顶贴才是王道……
放弃良心吧,因为根本没有天堂;为所欲为吧,因为根本没有地狱!

1

主题

776

帖子

2613

积分

赤血神龙

Rank: 20Rank: 20Rank: 20Rank: 20

积分
2613
QQ
发表于 2023-12-1 20:34:31 | 显示全部楼层
感谢楼主分享!

0

主题

2061

帖子

5284

积分

海龙王

Rank: 25Rank: 25Rank: 25Rank: 25Rank: 25

积分
5284
发表于 2023-12-1 21:00:06 | 显示全部楼层
感謝航子分享!
您需要登录后才可以回帖 登录 | 立即注册

本版积分规则

小黑屋|梦幻天堂·龙网

GMT+8, 2024-6-22 14:14 , Processed in 0.195693 second(s), 27 queries , Gzip On.

Powered by Discuz! X3.2

© 2001-2013 Comsenz Inc.

快速回复 返回顶部 返回列表