梦幻天堂·龙网

 找回密码
 立即注册
查看: 14999|回复: 197

[最新电影龙网转发] 【龙网转发】【中2023票房战争巨制】【志愿军:雄兵出击】【WebDL-2160p.MKV】【国语】

  [复制链接]

2841

主题

3万

帖子

7万

积分

九鼎龙王·坛主

偶系漂漂滴龙民

Rank: 46Rank: 46Rank: 46Rank: 46Rank: 46Rank: 46

积分
75886

航子大神勋章

发表于 2023-12-2 15:01:33 | 显示全部楼层 |阅读模式
海报





译  名 志愿军:雄兵出击/志愿军三部曲1/伟大的战争·抗美援朝/伟大的胜利/战与祀
片  名 The Volunteers: To the War
年  代 2023
国  家 中国
类  别 战争/历史/剧情
语  言 汉语普通话/英语/韩语
字  幕 中英硬字幕
评  分 7.0/10 from 92,402 users
链  接 https://movie.douban.com/subject/35496350
文件大小 6.17 GB
片  长 140 Min
导  演 陈凯歌 Kaige Chen
主  演 唐国强 Guoqiang Tang
     王砚辉 Yanhui Wang
     刘劲 Jin Liu
     辛柏青 Baiqing Xin
     张颂文 Songwen Zhang
     黄晓明 Xiaoming Huang
     章子怡 Ziyi Zhang
     朱亚文 Yawen Zhu
     张子枫 Zifeng Zhang
     魏大勋 Daxun Wei
     肖央 Yang Xiao

简介

  为纪念抗美援朝战争胜利70周年,《志愿军》三部曲将全景式、多维度立体展现这场新中国的立国之战。电影《志愿军:雄兵出击》为该系列首部。
  1949年建国初期,新中国面临“内忧外患”局面。朝鲜内战爆发以来,美军屡在中朝边境挑衅,平民惨遭轰炸。为了维护来之不易的和平、为了世代长久的安稳,1950年10月,中国人民志愿军入朝,“抗美援朝”战争拉开帷幕。
  这是一场“举国之战”——
  朝鲜战场,即使军备实力对比悬殊,我军却用壮烈牺牲换回节节胜利;
  外交舞台,中华人民共和国代表团首度亮相联合国,中国新声赢得国际敬畏。
  新中国,寸土不让扬国威;新青年,意气风发保家国。

Video
Format                         : HEVC
Format/Info                    : High Efficiency Video Coding
Format profile                 : Main@L5@Main
Codec ID                       : V_MPEGH/ISO/HEVC
Duration                       : 2 h 19 min
Bit rate                       : 6 128 kb/s
Width                          : 3 840 pixels
Height                         : 1 608 pixels
Display aspect ratio           : 2.40:1
Frame rate mode                : Constant
Frame rate                     : 24.000 FPS
Color space                    : YUV
Chroma subsampling             : 4:2:0
Bit depth                      : 8 bits
Bits/(Pixel*Frame)             : 0.041
Stream size                    : 5.99 GiB (97%)

Audio
Format                         : AAC LC
Format/Info                    : Advanced Audio Codec Low Complexity
Codec ID                       : A_AAC-2
Duration                       : 2 h 19 min
Bit rate                       : 192 kb/s
Channel(s)                     : 2 channels
Channel layout                 : L R
Sampling rate                  : 44.1 kHz
Frame rate                     : 43.066 FPS (1024 SPF)
Compression mode               : Lossy
Stream size                    : 190 MiB (3%)

截图




BT种子下载
梦幻天堂·龙网(www.LWgod.org).志愿军:雄兵出击.志愿军三部曲1.torrent (32.28 KB, 下载次数: 8041)

0

主题

836

帖子

2081

积分

赤血神龙

Rank: 20Rank: 20Rank: 20Rank: 20

积分
2081
发表于 2023-12-2 15:35:11 | 显示全部楼层
感谢分享!辛苦了!

0

主题

263

帖子

2834

积分

赤血神龙

Rank: 20Rank: 20Rank: 20Rank: 20

积分
2834
发表于 2023-12-2 15:43:28 | 显示全部楼层
感谢航子,辛苦发片~!

0

主题

408

帖子

3387

积分

赤血神龙

Rank: 20Rank: 20Rank: 20Rank: 20

积分
3387
发表于 2023-12-2 16:00:07 | 显示全部楼层
楼主辛苦,多谢分享。

0

主题

734

帖子

1366

积分

神龙

Rank: 15Rank: 15Rank: 15

积分
1366
发表于 2023-12-2 16:02:19 | 显示全部楼层
谢谢分享                                                      

1

主题

733

帖子

2498

积分

赤血神龙

Rank: 20Rank: 20Rank: 20Rank: 20

积分
2498
QQ
发表于 2023-12-2 16:07:00 | 显示全部楼层

感谢航子,辛苦发片

1

主题

1449

帖子

4388

积分

赤血神龙

Rank: 20Rank: 20Rank: 20Rank: 20

积分
4388
QQ
发表于 2023-12-2 16:13:39 | 显示全部楼层
tks for share............

0

主题

291

帖子

498

积分

龙少爷

Rank: 10Rank: 10

积分
498
发表于 2023-12-2 16:26:15 | 显示全部楼层
感谢分享!辛苦了!

1

主题

2658

帖子

3802

积分

赤血神龙

Rank: 20Rank: 20Rank: 20Rank: 20

积分
3802
发表于 2023-12-2 16:44:35 | 显示全部楼层
感谢楼主分享!!!!!

0

主题

540

帖子

1362

积分

神龙

Rank: 15Rank: 15Rank: 15

积分
1362
发表于 2023-12-2 16:51:56 | 显示全部楼层
THANKS FOR SHARING!

19

主题

6万

帖子

7万

积分

天地独尊龙王

梦幻天使

Rank: 33Rank: 33Rank: 33Rank: 33Rank: 33

积分
76328
发表于 2023-12-2 17:15:26 | 显示全部楼层
非常感谢航子分享精彩影片!

1

主题

783

帖子

1043

积分

神龙

Rank: 15Rank: 15Rank: 15

积分
1043
发表于 2023-12-2 17:19:53 | 显示全部楼层
感谢航子,辛苦发片

7

主题

677

帖子

3443

积分

升龙霸·VIP

Rank: 22Rank: 22Rank: 22Rank: 22

积分
3443

龙网VIP·银牌龙网VIP·银章

发表于 2023-12-2 17:31:46 | 显示全部楼层
谢谢分享

1

主题

4496

帖子

6285

积分

海龙王

Rank: 25Rank: 25Rank: 25Rank: 25Rank: 25

积分
6285
发表于 2023-12-2 17:43:18 | 显示全部楼层
感谢楼主分享!!!!!

2

主题

1774

帖子

2354

积分

赤血神龙

Rank: 20Rank: 20Rank: 20Rank: 20

积分
2354
发表于 2023-12-2 17:44:19 | 显示全部楼层
谢谢分享,下载下来看看。
您需要登录后才可以回帖 登录 | 立即注册

本版积分规则

小黑屋|梦幻天堂·龙网

GMT+8, 2024-4-23 00:48 , Processed in 0.353158 second(s), 29 queries , Gzip On.

Powered by Discuz! X3.2

© 2001-2013 Comsenz Inc.

快速回复 返回顶部 返回列表