梦幻天堂·龙网

 找回密码
 立即注册
查看: 13580|回复: 98

[最新电影龙网转发] 【龙网转发】【中国2023最新高分获奖好片】【白塔之光】【WebDL-2160p.MKV】【国语】

[复制链接]

2841

主题

3万

帖子

7万

积分

九鼎龙王·坛主

偶系漂漂滴龙民

Rank: 46Rank: 46Rank: 46Rank: 46Rank: 46Rank: 46

积分
75886

航子大神勋章

发表于 2023-12-4 15:27:18 | 显示全部楼层 |阅读模式
海报





译  名 白塔之光
片  名 The Shadowless Tower
年  代 2023
国  家 中国
类  别 剧情
语  言 汉语普通话/粤语
字  幕 中英硬字幕
评  分 7.1/10 from 13,699 users
链  接 https://movie.douban.com/subject/35424892
文件大小 4.40 GB
片  长 144 Min
导  演 张律 Lu Zhang
主  演 辛柏青 Baiqing Xin
     黄尧 Yao Huang
     田壮壮 Zhuangzhuang Tian
     南吉 Ji Nan
     李勤勤 Qinqin Li
     王宏伟 Hongwei Wang
     王奕雯 Yiwen Wang
     刘丹 Dan Liu
     张献民 Xianmin Zhang
     朱文 Wen Zhu
     毛乐 Le Mao

简介

  本片讲述独自生活的美食专栏撰稿人谷文通(辛柏青 饰),偶然间认识了同样一个人的摄影师欧阳文慧(黄尧 饰),两个孤独的灵魂相互陪伴,一起徘徊在人来人往的北京街头,寻找内心的归宿。一次偶然的机会,谷文通得知了欧阳文慧的隐痛往事,又发现了自己父亲(田壮壮 饰)失联四十多年的真相,让他的生活有了新的变化……

Video
Format                         : HEVC
Format/Info                    : High Efficiency Video Coding
Format profile                 : Main@L5@Main
Codec ID                       : V_MPEGH/ISO/HEVC
Duration                       : 2 h 24 min
Bit rate                       : 4 127 kb/s
Width                          : 3 840 pixels
Height                         : 2 160 pixels
Display aspect ratio           : 16:9
Frame rate mode                : Constant
Frame rate                     : 24.000 FPS
Color space                    : YUV
Chroma subsampling             : 4:2:0
Bit depth                      : 8 bits
Bits/(Pixel*Frame)             : 0.021
Stream size                    : 4.15 GiB (94%)

Audio
Format                         : E-AC-3
Format/Info                    : Enhanced AC-3
Commercial name                : Dolby Digital Plus
Codec ID                       : A_EAC3
Duration                       : 2 h 24 min
Bit rate mode                  : Constant
Bit rate                       : 256 kb/s
Channel(s)                     : 6 channels
Channel layout                 : L R C LFE Ls Rs
Sampling rate                  : 48.0 kHz
Frame rate                     : 31.250 FPS (1536 SPF)
Compression mode               : Lossy
Stream size                    : 264 MiB (6%)
Service kind                   : Complete Main

截图




BT种子下载
梦幻天堂·龙网(www.LWgod.org).白塔之光.torrent (23.37 KB, 下载次数: 2442)

0

主题

872

帖子

1323

积分

神龙

Rank: 15Rank: 15Rank: 15

积分
1323
发表于 2023-12-4 16:07:36 | 显示全部楼层
谢谢楼主无私分享

0

主题

408

帖子

3387

积分

赤血神龙

Rank: 20Rank: 20Rank: 20Rank: 20

积分
3387
发表于 2023-12-4 16:22:24 | 显示全部楼层
楼主辛苦,多谢分享。

1

主题

733

帖子

2498

积分

赤血神龙

Rank: 20Rank: 20Rank: 20Rank: 20

积分
2498
QQ
发表于 2023-12-4 16:55:39 | 显示全部楼层
多谢航子发片

19

主题

6万

帖子

7万

积分

天地独尊龙王

梦幻天使

Rank: 33Rank: 33Rank: 33Rank: 33Rank: 33

积分
76328
发表于 2023-12-4 17:02:01 | 显示全部楼层
非常感谢航子分享精彩影片!

0

主题

853

帖子

639

积分

龙的传人

Rank: 13Rank: 13Rank: 13

积分
639
发表于 2023-12-4 17:04:34 | 显示全部楼层
楼主辛苦,多谢分享。

0

主题

853

帖子

639

积分

龙的传人

Rank: 13Rank: 13Rank: 13

积分
639
发表于 2023-12-4 17:04:48 | 显示全部楼层
楼主辛苦,多谢分享。

0

主题

232

帖子

1046

积分

神龙

Rank: 15Rank: 15Rank: 15

积分
1046
发表于 2023-12-4 17:09:40 | 显示全部楼层
感谢分享,希望能持续更新~

9

主题

7128

帖子

1万

积分

神界龙王

Rank: 30Rank: 30Rank: 30Rank: 30

积分
10827
发表于 2023-12-4 17:19:30 | 显示全部楼层
感谢航子分享

0

主题

8388

帖子

1万

积分

神界龙王

Rank: 30Rank: 30Rank: 30Rank: 30

积分
12315
发表于 2023-12-4 17:28:10 | 显示全部楼层

0

主题

263

帖子

2834

积分

赤血神龙

Rank: 20Rank: 20Rank: 20Rank: 20

积分
2834
发表于 2023-12-4 17:29:12 | 显示全部楼层
感谢航子,辛苦发片~!

0

主题

6933

帖子

9492

积分

海龙王

Rank: 25Rank: 25Rank: 25Rank: 25Rank: 25

积分
9492
发表于 2023-12-4 17:40:53 | 显示全部楼层
谢谢楼主分享!!

0

主题

2962

帖子

4222

积分

赤血神龙

Rank: 20Rank: 20Rank: 20Rank: 20

积分
4222
发表于 2023-12-4 18:25:17 | 显示全部楼层
感谢航子分享!

1

主题

1449

帖子

4388

积分

赤血神龙

Rank: 20Rank: 20Rank: 20Rank: 20

积分
4388
QQ
发表于 2023-12-4 18:31:32 | 显示全部楼层
tks for share..................

0

主题

836

帖子

2081

积分

赤血神龙

Rank: 20Rank: 20Rank: 20Rank: 20

积分
2081
发表于 2023-12-4 18:52:00 | 显示全部楼层
感谢分享!辛苦了!
您需要登录后才可以回帖 登录 | 立即注册

本版积分规则

小黑屋|梦幻天堂·龙网

GMT+8, 2024-4-22 22:56 , Processed in 0.193281 second(s), 27 queries , Gzip On.

Powered by Discuz! X3.2

© 2001-2013 Comsenz Inc.

快速回复 返回顶部 返回列表