梦幻天堂·龙网

 找回密码
 立即注册
查看: 17065|回复: 124

[最新电影龙网转发] 【龙网转发】【莱昂纳多2023最新悬疑犯罪】【花月杀手】【WebDL-1080p.MKV】【中字】

  [复制链接]

2841

主题

3万

帖子

7万

积分

九鼎龙王·坛主

偶系漂漂滴龙民

Rank: 46Rank: 46Rank: 46Rank: 46Rank: 46Rank: 46

积分
75886

航子大神勋章

发表于 2023-12-5 15:19:03 | 显示全部楼层 |阅读模式
海报





译  名 花月杀手/花开之月的杀手
片  名 Killers of the Flower Moon
年  代 2023
国  家 美国
类  别 悬疑/犯罪/惊悚/剧情/历史/西部
语  言 英语
字  幕 中简/中繁/英文
评  分 7.3/10 from 8,838 users
链  接 https://movie.douban.com/subject/26745332
文件大小 13.4 GB
片  长 206 Min
导  演 马丁·斯科塞斯 Martin Scorsese
主  演 莱昂纳多·迪卡普里奥 Leonardo DiCaprio
     罗伯特·德尼罗 Robert De Niro
     杰西·普莱蒙 Jesse Plemons
     莉莉·格莱斯顿 Lily Gladstone
     布兰登·费舍 Brendan Fraser
     坦图·卡丁诺 Tantoo Cardinal
     约翰·利思戈 John Lithgow
     卡拉·杰德·迈尔斯 Cara Jade Myers
     亚内·科林斯 Janae Collins
     吉莉安·迪昂 Jillian Dion
     威廉·贝勒 William Belleau

简介

  影片改编自大卫·格兰所著畅销书《Killers of the Flower Moon:The Osage Murders and the Birth of the FBI》,聚焦1920年代的美国俄克拉何马州,“欧塞奇族印第安人谋杀案”(Osage Indian Mur ders)。当年欧塞奇族人因原居地发现油矿而获得持续巨额收入,有人为阻止上述安排而策划连环谋杀,4年间60人被杀,震惊全国。为此当年美国政府成立“调查局”(即FBI联邦调查局前身)跨部门调查,揭发维护欧塞奇族人权益的“欧塞奇监护人计划”原来极度腐败;最后即使在大量证据下,亦只有少数的谋杀案获得起诉。

Video
Format                         : AVC
Format/Info                    : Advanced Video Codec
Format profile                 : High@L4
Format settings                : CABAC / 4 Ref Frames
Format settings, CABAC         : Yes
Format settings, Reference fra : 4 frames
Codec ID                       : V_MPEG4/ISO/AVC
Duration                       : 3 h 28 min
Bit rate mode                  : Constant
Bit rate                       : 8 504 kb/s
Nominal bit rate               : 10 000 kb/s
Width                          : 1 920 pixels
Height                         : 800 pixels
Display aspect ratio           : 2.40:1
Frame rate mode                : Constant
Frame rate                     : 23.976 (24000/1001) FPS
Color space                    : YUV
Chroma subsampling             : 4:2:0
Bit depth                      : 8 bits
Scan type                      : Progressive
Bits/(Pixel*Frame)             : 0.231
Stream size                    : 12.4 GiB (92%)
Color range                    : Limited
Color primaries                : BT.709
Transfer characteristics       : BT.709
Matrix coefficients            : BT.709

Audio
Format                         : E-AC-3 JOC
Format/Info                    : Enhanced AC-3 with Joint Object Coding
Commercial name                : Dolby Digital Plus with Dolby Atmos
Codec ID                       : A_EAC3
Duration                       : 3 h 26 min
Bit rate mode                  : Constant
Bit rate                       : 768 kb/s
Channel(s)                     : 6 channels
Channel layout                 : L R C LFE Ls Rs
Sampling rate                  : 48.0 kHz
Frame rate                     : 31.250 FPS (1536 SPF)
Compression mode               : Lossy
Delay relative to video        : 20 ms
Stream size                    : 1.11 GiB (8%)
Language                       : English
Service kind                   : Complete Main

截图




BT种子下载
梦幻天堂·龙网(www.LWgod.org).花月杀手.花开之月的杀手.torrent (68.78 KB, 下载次数: 5047)

0

主题

408

帖子

3387

积分

赤血神龙

Rank: 20Rank: 20Rank: 20Rank: 20

积分
3387
发表于 2023-12-5 16:18:25 | 显示全部楼层
楼主辛苦,多谢分享。

0

主题

151

帖子

596

积分

升龙霸·VIP

Rank: 22Rank: 22Rank: 22Rank: 22

积分
596

龙网VIP·银星龙网VIP·银章

发表于 2023-12-5 16:38:10 | 显示全部楼层
感谢分享

19

主题

6万

帖子

7万

积分

天地独尊龙王

梦幻天使

Rank: 33Rank: 33Rank: 33Rank: 33Rank: 33

积分
76328
发表于 2023-12-5 16:55:37 | 显示全部楼层
非常感谢航子分享精彩影片!

1

主题

733

帖子

2498

积分

赤血神龙

Rank: 20Rank: 20Rank: 20Rank: 20

积分
2498
QQ
发表于 2023-12-5 16:56:24 | 显示全部楼层
冲着这俩也得看看

0

主题

210

帖子

606

积分

龙的传人

Rank: 13Rank: 13Rank: 13

积分
606
发表于 2023-12-5 17:13:05 | 显示全部楼层
66666666666666666

0

主题

38

帖子

154

积分

龙之子

Rank: 8Rank: 8Rank: 8Rank: 8

积分
154
发表于 2023-12-5 17:37:30 | 显示全部楼层
剧情很有吸引力,演员阵容也不错,欣赏一下。感谢分享!

0

主题

8388

帖子

1万

积分

神界龙王

Rank: 30Rank: 30Rank: 30Rank: 30

积分
12315
发表于 2023-12-5 17:53:18 | 显示全部楼层

0

主题

1万

帖子

1万

积分

神界龙王

Rank: 30Rank: 30Rank: 30Rank: 30

积分
16352
QQ
发表于 2023-12-5 18:21:45 | 显示全部楼层
感谢航子分享
一切终会过去

1

主题

1449

帖子

4388

积分

赤血神龙

Rank: 20Rank: 20Rank: 20Rank: 20

积分
4388
QQ
发表于 2023-12-5 18:32:02 | 显示全部楼层
tks for share..............

0

主题

853

帖子

639

积分

龙的传人

Rank: 13Rank: 13Rank: 13

积分
639
发表于 2023-12-5 18:40:31 | 显示全部楼层
感谢航子分享

0

主题

853

帖子

639

积分

龙的传人

Rank: 13Rank: 13Rank: 13

积分
639
发表于 2023-12-5 18:40:55 | 显示全部楼层
感谢航子分享

1

主题

572

帖子

2072

积分

赤血神龙

Rank: 20Rank: 20Rank: 20Rank: 20

积分
2072
发表于 2023-12-5 18:56:23 | 显示全部楼层
感谢航子分享好片,此片评价很高啊

4

主题

567

帖子

2670

积分

赤血神龙

Rank: 20Rank: 20Rank: 20Rank: 20

积分
2670

龙网爱心勋章

QQ
发表于 2023-12-5 19:19:32 | 显示全部楼层
老马丁  必看 这才是电影
生活不容易

0

主题

78

帖子

865

积分

升龙霸·VIP

Rank: 22Rank: 22Rank: 22Rank: 22

积分
865

龙网爱心勋章龙网VIP·金章

发表于 2023-12-5 19:47:02 | 显示全部楼层
感谢分享
您需要登录后才可以回帖 登录 | 立即注册

本版积分规则

小黑屋|梦幻天堂·龙网

GMT+8, 2024-4-23 00:48 , Processed in 0.251153 second(s), 27 queries , Gzip On.

Powered by Discuz! X3.2

© 2001-2013 Comsenz Inc.

快速回复 返回顶部 返回列表