梦幻天堂·龙网

 找回密码
 立即注册
查看: 15442|回复: 115

[最新电影龙网转发] 【龙网转发】【中2023票房高分犯罪力作】【河边的错误】【WebDL-2160p.MKV】【国语】

  [复制链接]

2841

主题

3万

帖子

7万

积分

九鼎龙王·坛主

偶系漂漂滴龙民

Rank: 46Rank: 46Rank: 46Rank: 46Rank: 46Rank: 46

积分
75886

航子大神勋章

发表于 2023-12-7 14:20:51 | 显示全部楼层 |阅读模式
海报





译  名 河边的错误/江东喜事
片  名 Only the River Flows
年  代 2023
国  家 中国
类  别 剧情/犯罪
语  言 汉语普通话
字  幕 中文硬字幕
评  分 7.5/10 from 237,766 users
链  接 https://movie.douban.com/subject/35256092
文件大小 3.73 GB
片  长 102 Min
导  演 魏书钧 Shujun Wei
主  演 朱一龙 Yilong Zhu
     曾美慧孜 Meihuizi Zeng
     侯天来 Tianlai Hou
     佟林楷 Linkai Tong
     康春雷 Chunlei Kang
     王健宇 Kira Wang
     莫西子诗 Chunlin Mo
     白沙 Baisha
     曹阳 Yang Cao
     周庆昀 Qingyun Zhou
     曾淇 Qi Zeng

简介

  影片改编自余华同名先锋代表作,看似是马哲(朱一龙 饰)在找寻凶案的真相,但故事没有答案,因为命运的看法比我们更准确……

  该片入围第76届戛纳电影节“一种关注”官方单元。

Video
Format                         : HEVC
Format/Info                    : High Efficiency Video Coding
Format profile                 : Main @ L5.1 @ Main
Codec ID                       : V_MPEGH/ISO/HEVC
Duration                       : 1 h 41 min
Bit rate                       : 5 060 kb/s
Width                          : 3 840 pixels
Height                         : 2 072 pixels
Display aspect ratio           : 1.85:1
Frame rate mode                : Constant
Frame rate                     : 60.000 FPS
Color space                    : YUV
Chroma subsampling             : 4:2:0
Bit depth                      : 8 bits
Bits/(Pixel*Frame)             : 0.011
Stream size                    : 3.60 GiB (96%)

Audio
Format                         : AAC LC
Format/Info                    : Advanced Audio Codec Low Complexity
Codec ID                       : A_AAC-2
Duration                       : 1 h 41 min
Bit rate                       : 192 kb/s
Channel(s)                     : 2 channels
Channel layout                 : L R
Sampling rate                  : 44.1 kHz
Frame rate                     : 43.066 FPS (1024 SPF)
Compression mode               : Lossy
Stream size                    : 138 MiB (4%)

截图




BT种子下载
梦幻天堂·龙网(www.LWgod.org).河边的错误.江东喜事.torrent (26.27 KB, 下载次数: 4778)

0

主题

95

帖子

689

积分

升龙霸·VIP

Rank: 22Rank: 22Rank: 22Rank: 22

积分
689

龙网VIP·银星

发表于 2023-12-7 15:22:00 | 显示全部楼层
航子辛苦啦

19

主题

6万

帖子

7万

积分

天地独尊龙王

梦幻天使

Rank: 33Rank: 33Rank: 33Rank: 33Rank: 33

积分
76328
发表于 2023-12-7 15:35:32 | 显示全部楼层
非常感谢航子分享精彩影片!

0

主题

8388

帖子

1万

积分

神界龙王

Rank: 30Rank: 30Rank: 30Rank: 30

积分
12315
发表于 2023-12-7 15:38:34 | 显示全部楼层

1

主题

733

帖子

2498

积分

赤血神龙

Rank: 20Rank: 20Rank: 20Rank: 20

积分
2498
QQ
发表于 2023-12-7 16:18:36 | 显示全部楼层
航子辛苦感谢发片

0

主题

408

帖子

3387

积分

赤血神龙

Rank: 20Rank: 20Rank: 20Rank: 20

积分
3387
发表于 2023-12-7 16:25:02 | 显示全部楼层
楼主辛苦,多谢分享。

0

主题

274

帖子

716

积分

龙的传人

Rank: 13Rank: 13Rank: 13

积分
716
发表于 2023-12-7 17:46:55 | 显示全部楼层

感謝樓主的分享囉!!

0

主题

1万

帖子

1万

积分

神界龙王

Rank: 30Rank: 30Rank: 30Rank: 30

积分
16352
QQ
发表于 2023-12-7 18:05:27 | 显示全部楼层
感谢航子分享
一切终会过去

0

主题

151

帖子

596

积分

升龙霸·VIP

Rank: 22Rank: 22Rank: 22Rank: 22

积分
596

龙网VIP·银星龙网VIP·银章

发表于 2023-12-7 18:06:26 | 显示全部楼层
这个挺好的

0

主题

263

帖子

2834

积分

赤血神龙

Rank: 20Rank: 20Rank: 20Rank: 20

积分
2834
发表于 2023-12-7 18:30:39 | 显示全部楼层
感谢航子,辛苦发片!

0

主题

77

帖子

1627

积分

神龙

Rank: 15Rank: 15Rank: 15

积分
1627
发表于 2023-12-7 18:42:03 | 显示全部楼层
国产高分片,值得下来看看

1

主题

1449

帖子

4388

积分

赤血神龙

Rank: 20Rank: 20Rank: 20Rank: 20

积分
4388
QQ
发表于 2023-12-7 18:51:40 | 显示全部楼层
tks for share.............

467

主题

1万

帖子

2万

积分

神界龙王

Rank: 30Rank: 30Rank: 30Rank: 30

积分
25852

龙网爱心勋章

发表于 2023-12-7 18:52:17 | 显示全部楼层
感谢航子,辛苦发片!

0

主题

6933

帖子

9492

积分

海龙王

Rank: 25Rank: 25Rank: 25Rank: 25Rank: 25

积分
9492
发表于 2023-12-7 19:23:50 | 显示全部楼层
谢谢楼主分享!!

0

主题

69

帖子

149

积分

龙之子

Rank: 8Rank: 8Rank: 8Rank: 8

积分
149
发表于 2023-12-7 19:26:40 | 显示全部楼层
航子辛苦!
您需要登录后才可以回帖 登录 | 立即注册

本版积分规则

小黑屋|梦幻天堂·龙网

GMT+8, 2024-4-22 23:44 , Processed in 0.368663 second(s), 29 queries , Gzip On.

Powered by Discuz! X3.2

© 2001-2013 Comsenz Inc.

快速回复 返回顶部 返回列表