梦幻天堂·龙网

 找回密码
 立即注册
查看: 10459|回复: 93

[最新电影龙网转发] 【龙网转发】【中2023票房喜剧爱情】【前任4:英年早婚】【WebDL-2160p.MKV】【国语】

[复制链接]

2841

主题

3万

帖子

7万

积分

九鼎龙王·坛主

偶系漂漂滴龙民

Rank: 46Rank: 46Rank: 46Rank: 46Rank: 46Rank: 46

积分
75886

航子大神勋章

发表于 2023-12-8 18:59:56 | 显示全部楼层 |阅读模式
海报





译  名 前任4:英年早婚/前任4/分手清单/前任:分手清单/前任攻略4
片  名 The Ex-Files 4: Marriage Plan
年  代 2023
国  家 中国
类  别 喜剧/爱情
语  言 汉语普通话
字  幕 中英硬字幕
评  分 5.9/10 from 73,107 users
链  接 https://movie.douban.com/subject/35358443
文件大小 3.33 GB
片  长 129 Min
导  演 田羽生 Yusheng Tian
主  演 韩庚 Han geng
     郑恺 Kai Zheng
     于文文 Kelly Yu
     刘雅瑟 Yase Liu
     曾梦雪 Mengxue Zeng
     张天爱 Tian'ai Zhang
     朱颜曼滋 Yanmanzi Zhu
     罗米 Mi Luo
     冯铭潮 Mingchao Feng
     药一樍 Yize Yao
     于惠 Hui Yu

简介

  孟云(韩庚 饰)和余飞(郑恺 饰)这对难兄难弟,在历经情场的洗礼之后,终于来到了谈婚论嫁的年纪。正在经历“分手后遗症”的孟云,面对家人的催促,带着“为什么要结婚”的疑问,开始寻找真爱;而余飞和女友丁点(曾梦雪 饰)为了应对结婚后即将产生的各种情况,自创了“结婚冷静期”,将婚后生活提前预演。两兄弟开启一场全新的爱情挑战……

Video
Format                         : HEVC
Format/Info                    : High Efficiency Video Coding
Format profile                 : Main @ L5.1 @ Main
Codec ID                       : V_MPEGH/ISO/HEVC
Duration                       : 2 h 8 min
Bit rate                       : 3 514 kb/s
Width                          : 3 840 pixels
Height                         : 1 608 pixels
Display aspect ratio           : 2.40:1
Frame rate mode                : Constant
Frame rate                     : 60.000 FPS
Color space                    : YUV
Chroma subsampling             : 4:2:0
Bit depth                      : 8 bits
Bits/(Pixel*Frame)             : 0.009
Stream size                    : 3.16 GiB (95%)
Color range                    : Limited
Color primaries                : BT.709
Transfer characteristics       : BT.709
Matrix coefficients            : BT.709

Audio
Format                         : AAC LC
Format/Info                    : Advanced Audio Codec Low Complexity
Codec ID                       : A_AAC-2
Duration                       : 2 h 8 min
Bit rate                       : 192 kb/s
Channel(s)                     : 2 channels
Channel layout                 : L R
Sampling rate                  : 44.1 kHz
Frame rate                     : 43.066 FPS (1024 SPF)
Compression mode               : Lossy
Stream size                    : 177 MiB (5%)

截图




BT种子下载
梦幻天堂·龙网(www.LWgod.org).前任4:英年早婚.torrent (23.57 KB, 下载次数: 3649)

19

主题

6万

帖子

7万

积分

天地独尊龙王

梦幻天使

Rank: 33Rank: 33Rank: 33Rank: 33Rank: 33

积分
76328
发表于 2023-12-8 19:24:19 | 显示全部楼层
非常感谢航子分享精彩影片!

0

主题

836

帖子

2081

积分

赤血神龙

Rank: 20Rank: 20Rank: 20Rank: 20

积分
2081
发表于 2023-12-8 19:31:26 | 显示全部楼层
感谢分享!辛苦了!

1

主题

733

帖子

2498

积分

赤血神龙

Rank: 20Rank: 20Rank: 20Rank: 20

积分
2498
QQ
发表于 2023-12-8 19:36:49 | 显示全部楼层

感谢分享!

4

主题

567

帖子

2670

积分

赤血神龙

Rank: 20Rank: 20Rank: 20Rank: 20

积分
2670

龙网爱心勋章

QQ
发表于 2023-12-8 19:39:59 | 显示全部楼层
现代城市的爱👄
生活不容易

0

主题

408

帖子

3387

积分

赤血神龙

Rank: 20Rank: 20Rank: 20Rank: 20

积分
3387
发表于 2023-12-8 19:46:50 | 显示全部楼层
楼主辛苦,多谢分享。

0

主题

2962

帖子

4222

积分

赤血神龙

Rank: 20Rank: 20Rank: 20Rank: 20

积分
4222
发表于 2023-12-8 20:04:51 | 显示全部楼层
感谢航子分享!

0

主题

1万

帖子

1万

积分

神界龙王

Rank: 30Rank: 30Rank: 30Rank: 30

积分
16352
QQ
发表于 2023-12-8 20:13:44 | 显示全部楼层
感谢航子分享
一切终会过去

0

主题

850

帖子

1572

积分

升龙霸·VIP

Rank: 22Rank: 22Rank: 22Rank: 22

积分
1572

赞助会员 LV5

发表于 2023-12-8 20:37:51 | 显示全部楼层
感谢分享!辛苦了!

0

主题

850

帖子

1572

积分

升龙霸·VIP

Rank: 22Rank: 22Rank: 22Rank: 22

积分
1572

赞助会员 LV5

发表于 2023-12-8 20:37:55 | 显示全部楼层
感谢分享!辛苦了!

0

主题

850

帖子

1572

积分

升龙霸·VIP

Rank: 22Rank: 22Rank: 22Rank: 22

积分
1572

赞助会员 LV5

发表于 2023-12-8 20:37:59 | 显示全部楼层
感谢分享!辛苦了!

0

主题

695

帖子

1913

积分

神龙

Rank: 15Rank: 15Rank: 15

积分
1913
发表于 2023-12-8 20:42:19 | 显示全部楼层
感谢航子分享!

0

主题

95

帖子

689

积分

升龙霸·VIP

Rank: 22Rank: 22Rank: 22Rank: 22

积分
689

龙网VIP·银星

发表于 2023-12-8 20:51:04 | 显示全部楼层
航子辛苦了

0

主题

658

帖子

1783

积分

神龙

Rank: 15Rank: 15Rank: 15

积分
1783
QQ
发表于 2023-12-8 21:15:10 | 显示全部楼层

感谢航子分享!
我爱音乐!我爱自由!

1

主题

4496

帖子

6285

积分

海龙王

Rank: 25Rank: 25Rank: 25Rank: 25Rank: 25

积分
6285
发表于 2023-12-8 21:30:42 | 显示全部楼层
感谢楼主分享!!!!
您需要登录后才可以回帖 登录 | 立即注册

本版积分规则

小黑屋|梦幻天堂·龙网

GMT+8, 2024-4-23 00:44 , Processed in 4.462280 second(s), 29 queries , Gzip On.

Powered by Discuz! X3.2

© 2001-2013 Comsenz Inc.

快速回复 返回顶部 返回列表