梦幻天堂·龙网

 找回密码
 立即注册
查看: 36905|回复: 210

[最新电影龙网转发] 【龙网转发】【范冰冰2023最新限制级剧情新片】【绿夜】【WebDL-1080p.MKV】【中字】

  [复制链接]

2841

主题

3万

帖子

7万

积分

九鼎龙王·坛主

偶系漂漂滴龙民

Rank: 46Rank: 46Rank: 46Rank: 46Rank: 46Rank: 46

积分
75886

航子大神勋章

发表于 2023-12-13 16:25:25 | 显示全部楼层 |阅读模式
海报





译  名 绿夜
片  名 Green Night
年  代 2023
国  家 中国香港
类  别 剧情/同性
语  言 韩语/汉语普通话
字  幕 中简/中繁
评  分 5.4/10 from 14,838 users
链  接 https://movie.douban.com/subject/36217770
文件大小 3.30 GB
片  长 92 Min
导  演 韩帅 Shuai Han
主  演 范冰冰 Bingbing Fan
     李周映 Joo-young Lee
     金英浩 Young-ho Kim

简介

  中国移民静霞在首尔机场安检处工作,某天一个绿发女孩闯入了她的视线。这个对搜身检查毫不在乎的女孩让静霞着迷。为了摆脱各自无用的丈夫,她们冒险走进韩国黑帮的领地,与试图支配和占有她们的人抗争——她们学会了只依靠自己。影片讲述两个绝望边缘女人为解放自己、逃离无用丈夫,互相帮助扶持,在首尔的迷乱世界中的冒险故事。

Video
Format                         : AVC
Format/Info                    : Advanced Video Codec
Format profile                 : High@L4
Format settings                : CABAC / 4 Ref Frames
Format settings, CABAC         : Yes
Format settings, Reference fra : 4 frames
Codec ID                       : V_MPEG4/ISO/AVC
Duration                       : 1 h 32 min
Bit rate mode                  : Variable
Bit rate                       : 4 894 kb/s
Maximum bit rate               : 10 000 kb/s
Width                          : 1 920 pixels
Height                         : 1 080 pixels
Display aspect ratio           : 16:9
Frame rate mode                : Constant
Frame rate                     : 24.000 FPS
Color space                    : YUV
Chroma subsampling             : 4:2:0
Bit depth                      : 8 bits
Scan type                      : Progressive
Bits/(Pixel*Frame)             : 0.098
Stream size                    : 3.17 GiB (96%)

Audio
Format                         : AAC LC
Format/Info                    : Advanced Audio Codec Low Complexity
Codec ID                       : A_AAC-2
Duration                       : 1 h 32 min
Bit rate                       : 192 kb/s
Channel(s)                     : 2 channels
Channel layout                 : L R
Sampling rate                  : 48.0 kHz
Frame rate                     : 46.875 FPS (1024 SPF)
Compression mode               : Lossy
Stream size                    : 127 MiB (4%)

截图












BT种子下载
梦幻天堂·龙网(www.LWgod.org).绿夜.范冰冰2023新片.torrent (23.38 KB, 下载次数: 31278)

1

主题

733

帖子

2498

积分

赤血神龙

Rank: 20Rank: 20Rank: 20Rank: 20

积分
2498
QQ
发表于 2023-12-13 17:00:25 | 显示全部楼层
沙发,冰冰只能去韩国拍片啦

0

主题

173

帖子

474

积分

龙少爷

Rank: 10Rank: 10

积分
474
发表于 2023-12-13 17:09:11 | 显示全部楼层
感谢坛主分享

1

主题

491

帖子

1272

积分

神龙

Rank: 15Rank: 15Rank: 15

积分
1272
发表于 2023-12-13 17:56:16 | 显示全部楼层
十分感谢分享

0

主题

8388

帖子

1万

积分

神界龙王

Rank: 30Rank: 30Rank: 30Rank: 30

积分
12315
发表于 2023-12-13 18:21:00 | 显示全部楼层

19

主题

6万

帖子

7万

积分

天地独尊龙王

梦幻天使

Rank: 33Rank: 33Rank: 33Rank: 33Rank: 33

积分
76328
发表于 2023-12-13 18:25:35 | 显示全部楼层
非常感谢航子分享精彩影片!

1

主题

1449

帖子

4388

积分

赤血神龙

Rank: 20Rank: 20Rank: 20Rank: 20

积分
4388
QQ
发表于 2023-12-13 18:44:18 | 显示全部楼层
tks for share..............

0

主题

2962

帖子

4222

积分

赤血神龙

Rank: 20Rank: 20Rank: 20Rank: 20

积分
4222
发表于 2023-12-13 18:58:48 | 显示全部楼层
感谢航子分享!

1

主题

4

帖子

207

积分

龙少爷

Rank: 10Rank: 10

积分
207
发表于 2023-12-13 18:59:48 | 显示全部楼层
流浪地球2蓝光版出来了。站长是不是考虑压制一下???

0

主题

258

帖子

278

积分

龙少爷

Rank: 10Rank: 10

积分
278
发表于 2023-12-13 19:16:02 | 显示全部楼层
感谢分享,辛苦辛苦

0

主题

584

帖子

998

积分

龙的传人

Rank: 13Rank: 13Rank: 13

积分
998

龙网爱心勋章

发表于 2023-12-13 19:25:50 | 显示全部楼层
十分感谢分享

0

主题

69

帖子

149

积分

龙之子

Rank: 8Rank: 8Rank: 8Rank: 8

积分
149
发表于 2023-12-13 19:29:22 | 显示全部楼层
感谢航子无私付出。

0

主题

408

帖子

3387

积分

赤血神龙

Rank: 20Rank: 20Rank: 20Rank: 20

积分
3387
发表于 2023-12-13 19:40:50 | 显示全部楼层
楼主辛苦,多谢分享。

0

主题

263

帖子

2834

积分

赤血神龙

Rank: 20Rank: 20Rank: 20Rank: 20

积分
2834
发表于 2023-12-13 20:05:43 | 显示全部楼层
感谢航子,辛苦发片!

0

主题

67

帖子

307

积分

龙少爷

Rank: 10Rank: 10

积分
307
发表于 2023-12-13 20:27:38 | 显示全部楼层
楼主辛苦,多谢分享。
您需要登录后才可以回帖 登录 | 立即注册

本版积分规则

小黑屋|梦幻天堂·龙网

GMT+8, 2024-4-23 00:35 , Processed in 0.283901 second(s), 29 queries , Gzip On.

Powered by Discuz! X3.2

© 2001-2013 Comsenz Inc.

快速回复 返回顶部 返回列表