梦幻天堂·龙网

 找回密码
 立即注册
查看: 13069|回复: 90

[最新电影龙网转发] 【龙网转发】【2023高分喜剧】【好像也没那么热血沸腾】【WebDL-2160p.MKV】【国语】

[复制链接]

2841

主题

3万

帖子

7万

积分

九鼎龙王·坛主

偶系漂漂滴龙民

Rank: 46Rank: 46Rank: 46Rank: 46Rank: 46Rank: 46

积分
75886

航子大神勋章

发表于 2023-12-14 15:23:34 | 显示全部楼层 |阅读模式
海报





译  名 好像也没那么热血沸腾/热血沸腾/篮球冠军中国版
片  名 Lose to Win
年  代 2023
国  家 中国
类  别 喜剧/运动
语  言 汉语普通话
字  幕 中英硬字幕
评  分 7.0/10 from 33,708 users
链  接 https://movie.douban.com/subject/35882742
文件大小 4.66 GB
片  长 134 Min
导  演 高虎 Hu Gao
主  演 魏翔 Xiang Wei
     王智 Zhi Wang
     岳亮 Liang Yue
     艾伦 Allen
     王子异 Boogie Wang
     周大勇 Dayong Zhou
     韩笑 Xiao Han
     建康 Kang Jian
     刘沐琪 Muqi Liu
     刘斯博 Sibo Liu
     刘雪涛 Xuetao Liu

简介

  对胜利无比执着的篮球教练魏国铮(魏翔 饰),因违规受罚被迫进入一所特殊的学校支教。当奉行“打球就是为了赢”的自负教练,遇上一群热爱篮球但“能力值为负”的球员,在鸡同鸭讲式的日常相处和不停陷入中断的篮球训练中,濒临崩溃的魏教练会有奇招延续自己的不败神话吗?他们又能否一起负负得正,在即将到来的联赛上一路高歌猛进、披荆斩棘、勇夺冠军?

  影片改编自西班牙电影《篮球冠军》。

Video
Format                         : HEVC
Format/Info                    : High Efficiency Video Coding
Format profile                 : Main 10 @ L5.1 @ Main
Codec ID                       : V_MPEGH/ISO/HEVC
Duration                       : 2 h 14 min
Bit rate                       : 4 781 kb/s
Width                          : 3 840 pixels
Height                         : 1 608 pixels
Display aspect ratio           : 2.40:1
Frame rate mode                : Constant
Frame rate                     : 60.000 FPS
Color space                    : YUV
Chroma subsampling             : 4:2:0
Bit depth                      : 10 bits
Bits/(Pixel*Frame)             : 0.013
Stream size                    : 4.48 GiB (96%)
Color range                    : Limited
Color primaries                : BT.709
Transfer characteristics       : BT.709
Matrix coefficients            : BT.709

Audio
Format                         : AAC LC
Format/Info                    : Advanced Audio Codec Low Complexity
Codec ID                       : A_AAC-2
Duration                       : 2 h 14 min
Bit rate                       : 192 kb/s
Channel(s)                     : 2 channels
Channel layout                 : L R
Sampling rate                  : 44.1 kHz
Frame rate                     : 43.066 FPS (1024 SPF)
Compression mode               : Lossy
Stream size                    : 184 MiB (4%)

截图




BT种子下载
梦幻天堂·龙网(www.LWgod.org).好像也没那么热血沸腾.torrent (24.69 KB, 下载次数: 3722)

评分

1

查看全部评分

0

主题

872

帖子

1323

积分

神龙

Rank: 15Rank: 15Rank: 15

积分
1323
发表于 2023-12-14 15:46:58 | 显示全部楼层
谢谢楼主无私分享

0

主题

263

帖子

2834

积分

赤血神龙

Rank: 20Rank: 20Rank: 20Rank: 20

积分
2834
发表于 2023-12-14 16:11:29 | 显示全部楼层
感谢航子,辛苦发片!

0

主题

408

帖子

3387

积分

赤血神龙

Rank: 20Rank: 20Rank: 20Rank: 20

积分
3387
发表于 2023-12-14 16:37:41 | 显示全部楼层
楼主辛苦,多谢分享。

19

主题

6万

帖子

7万

积分

天地独尊龙王

梦幻天使

Rank: 33Rank: 33Rank: 33Rank: 33Rank: 33

积分
76328
发表于 2023-12-14 16:44:21 | 显示全部楼层
非常感谢航子分享精彩影片!

1

主题

733

帖子

2498

积分

赤血神龙

Rank: 20Rank: 20Rank: 20Rank: 20

积分
2498
QQ
发表于 2023-12-14 17:09:12 | 显示全部楼层
楼主辛苦,多谢分享。

0

主题

514

帖子

1212

积分

神龙

Rank: 15Rank: 15Rank: 15

积分
1212
QQ
发表于 2023-12-14 17:17:53 | 显示全部楼层

感谢航子,辛苦发片!
我读书少你可别骗我

0

主题

274

帖子

716

积分

龙的传人

Rank: 13Rank: 13Rank: 13

积分
716
发表于 2023-12-14 17:27:16 | 显示全部楼层
哈哈哈~~終於讓我找到了@@
一直在找的說!!
感謝樓主的分享囉!!

0

主题

209

帖子

1832

积分

神龙

Rank: 15Rank: 15Rank: 15

积分
1832
发表于 2023-12-14 17:55:52 | 显示全部楼层
感谢分享!

0

主题

8388

帖子

1万

积分

神界龙王

Rank: 30Rank: 30Rank: 30Rank: 30

积分
12315
发表于 2023-12-14 18:13:47 | 显示全部楼层

1

主题

35

帖子

134

积分

龙之子

Rank: 8Rank: 8Rank: 8Rank: 8

积分
134
发表于 2023-12-14 18:15:03 | 显示全部楼层

楼主辛苦,多谢分享。

1

主题

35

帖子

134

积分

龙之子

Rank: 8Rank: 8Rank: 8Rank: 8

积分
134
发表于 2023-12-14 18:15:28 | 显示全部楼层

非常感谢航子分享精彩影片!

1

主题

1449

帖子

4388

积分

赤血神龙

Rank: 20Rank: 20Rank: 20Rank: 20

积分
4388
QQ
发表于 2023-12-14 18:31:57 | 显示全部楼层
tks for share..........

1

主题

994

帖子

1120

积分

神龙

Rank: 15Rank: 15Rank: 15

积分
1120
发表于 2023-12-14 20:12:21 | 显示全部楼层
感谢航子,辛苦发片!

2

主题

2万

帖子

2万

积分

神界龙王

Rank: 30Rank: 30Rank: 30Rank: 30

积分
29201
发表于 2023-12-14 20:36:36 | 显示全部楼层
多航子分享
戏剧人生
您需要登录后才可以回帖 登录 | 立即注册

本版积分规则

小黑屋|梦幻天堂·龙网

GMT+8, 2024-4-23 00:33 , Processed in 0.355035 second(s), 30 queries , Gzip On.

Powered by Discuz! X3.2

© 2001-2013 Comsenz Inc.

快速回复 返回顶部 返回列表