梦幻天堂·龙网

 找回密码
 立即注册
查看: 22352|回复: 298

[最新电影龙网转发] 【龙网转发】【张艺谋导2023最新票房犯罪】【坚如磐石】【WebDL-2160p.MKV】【国语】

  [复制链接]

2841

主题

3万

帖子

7万

积分

九鼎龙王·坛主

偶系漂漂滴龙民

Rank: 46Rank: 46Rank: 46Rank: 46Rank: 46Rank: 46

积分
75886

航子大神勋章

发表于 2023-12-15 19:07:15 | 显示全部楼层 |阅读模式
海报





译  名 坚如磐石/黑洞
片  名 Under the Light
年  代 2023
国  家 中国
类  别 犯罪/剧情/悬疑
语  言 汉语普通话
字  幕 中英硬字幕
评  分 6.3/10 from 223,982 users
链  接 https://movie.douban.com/subject/33447633
文件大小 4.15 GB
片  长 127 Min
导  演 张艺谋 Yimou Zhang
主  演 雷佳音 Jiayin Lei
     张国立 Guoli Zhang
     于和伟 Hewei Yu
     周冬雨 Dongyu Zhou
     孙艺洲 Yizhou Sun
     李乃文 Naiwen Li
     许亚军 Yajun Xu
     田雨 Yu Tian
     何政军 Zhengjun He
     徐子力 Zili Xu
     林博洋 Boyang Lin
     陈童 Tong Chen
     陈道明 Daoming Chen
     陈冲 Joan Chen
     王迅 Xun Wang

简介

  导演张艺谋回归现实题材之作,故事围绕苏见明(雷佳音 饰)与李慧琳(周冬雨 饰)联手调查一起暗流涌动、牵扯巨大利益集团的犯罪案件展开。为了调查案情,苏见明不顾位高权重的父亲郑刚(张国立 饰)的劝阻,赶赴富商黎志田(于和伟 饰)的“鸿门宴”,在观看了一出黎志田愚弄他人、手入火锅的猖狂戏码后,越来越多的线索逐渐浮出水面。在这些线索背后的暗流涌动,让人隐隐感到一盘大棋正在筹谋。

  金江市副市长郑刚(张国立 饰)之子苏见明(雷佳音 饰)不顾父亲的劝阻,应邀赴约首富黎志田(于和伟 饰)的“鸿门宴”,不料却被迫观看了一出“人手下火锅”的猖狂戏码。旧案翻起,风雨欲来,各方蛰伏势力蠢蠢欲动,筹谋与算计、审视与怀疑,光怪陆离之中,人性欲望翻腾,谁将撕去最后的面具?

Video
Format                         : HEVC
Format/Info                    : High Efficiency Video Coding
Format profile                 : Main 10 @ L5.1 @ Main
Codec ID                       : V_MPEGH/ISO/HEVC
Duration                       : 2 h 7 min
Bit rate                       : 4 464 kb/s
Width                          : 3 840 pixels
Height                         : 1 440 pixels
Display aspect ratio           : 2.667
Frame rate mode                : Constant
Frame rate                     : 60.000 FPS
Color space                    : YUV
Chroma subsampling             : 4:2:0
Bit depth                      : 10 bits
Bits/(Pixel*Frame)             : 0.013
Stream size                    : 3.98 GiB (96%)
Color range                    : Limited
Color primaries                : BT.709
Transfer characteristics       : BT.709
Matrix coefficients            : BT.709

Audio
Format                         : AAC LC
Format/Info                    : Advanced Audio Codec Low Complexity
Codec ID                       : A_AAC-2
Duration                       : 2 h 7 min
Bit rate                       : 192 kb/s
Channel(s)                     : 2 channels
Channel layout                 : L R
Sampling rate                  : 44.1 kHz
Frame rate                     : 43.066 FPS (1024 SPF)
Compression mode               : Lossy
Stream size                    : 175 MiB (4%)

截图




BT种子下载
梦幻天堂·龙网(www.LWgod.org).坚如磐石.黑洞.torrent (22.14 KB, 下载次数: 11284)

0

主题

102

帖子

224

积分

升龙霸·VIP

Rank: 22Rank: 22Rank: 22Rank: 22

积分
224

龙网VIP·银星龙网VIP·银徽

发表于 2023-12-15 19:33:03 | 显示全部楼层
第二

1

主题

733

帖子

2498

积分

赤血神龙

Rank: 20Rank: 20Rank: 20Rank: 20

积分
2498
QQ
发表于 2023-12-15 19:38:22 | 显示全部楼层
感謝樓主的分享

0

主题

540

帖子

1362

积分

神龙

Rank: 15Rank: 15Rank: 15

积分
1362
发表于 2023-12-15 19:42:21 | 显示全部楼层
THANKS FOR SHARING!

19

主题

6万

帖子

7万

积分

天地独尊龙王

梦幻天使

Rank: 33Rank: 33Rank: 33Rank: 33Rank: 33

积分
76328
发表于 2023-12-15 19:42:40 | 显示全部楼层
非常感谢航子分享精彩影片!

0

主题

923

帖子

3119

积分

赤血神龙

Rank: 20Rank: 20Rank: 20Rank: 20

积分
3119
发表于 2023-12-15 20:02:24 | 显示全部楼层
谢谢楼主分享

0

主题

69

帖子

149

积分

龙之子

Rank: 8Rank: 8Rank: 8Rank: 8

积分
149
发表于 2023-12-15 20:14:26 | 显示全部楼层
航子美女辛苦了!

0

主题

408

帖子

3387

积分

赤血神龙

Rank: 20Rank: 20Rank: 20Rank: 20

积分
3387
发表于 2023-12-15 20:15:30 | 显示全部楼层
楼主辛苦,多谢分享。

0

主题

112

帖子

285

积分

龙少爷

Rank: 10Rank: 10

积分
285
发表于 2023-12-15 20:15:44 | 显示全部楼层
谢谢分享!

0

主题

2034

帖子

5197

积分

海龙王

Rank: 25Rank: 25Rank: 25Rank: 25Rank: 25

积分
5197
发表于 2023-12-15 20:22:05 | 显示全部楼层
感謝航子分享!

0

主题

263

帖子

2834

积分

赤血神龙

Rank: 20Rank: 20Rank: 20Rank: 20

积分
2834
发表于 2023-12-15 20:22:37 | 显示全部楼层
感谢航子,辛苦发片!

0

主题

2962

帖子

4222

积分

赤血神龙

Rank: 20Rank: 20Rank: 20Rank: 20

积分
4222
发表于 2023-12-15 21:13:07 | 显示全部楼层
感谢航子分享!

0

主题

7206

帖子

8019

积分

霸王龙·贵宾

狱血黑龙

Rank: 18Rank: 18

积分
8019
发表于 2023-12-15 21:24:04 | 显示全部楼层
感谢航子的好片分享,支持支持
当你不再拥有的时候,你唯一可以做的,就是令自己不要忘记!

2

主题

2万

帖子

2万

积分

神界龙王

Rank: 30Rank: 30Rank: 30Rank: 30

积分
29201
发表于 2023-12-15 21:30:41 | 显示全部楼层
多谢分享
戏剧人生

0

主题

8388

帖子

1万

积分

神界龙王

Rank: 30Rank: 30Rank: 30Rank: 30

积分
12315
发表于 2023-12-15 21:32:08 | 显示全部楼层
您需要登录后才可以回帖 登录 | 立即注册

本版积分规则

小黑屋|梦幻天堂·龙网

GMT+8, 2024-4-23 00:23 , Processed in 0.207280 second(s), 27 queries , Gzip On.

Powered by Discuz! X3.2

© 2001-2013 Comsenz Inc.

快速回复 返回顶部 返回列表