梦幻天堂·龙网

 找回密码
 立即注册
查看: 19493|回复: 126

[最新剧集龙网转发] 【龙网转发】【日2023万众期待视效】【幽游白书.全5集】【WebDL-1080p.MKV】【中字】

  [复制链接]

2841

主题

3万

帖子

7万

积分

九鼎龙王·坛主

偶系漂漂滴龙民

Rank: 46Rank: 46Rank: 46Rank: 46Rank: 46Rank: 46

积分
75886

航子大神勋章

发表于 2023-12-18 15:45:22 | 显示全部楼层 |阅读模式
海报





译  名 幽游白书/幽游白书真人版
片  名 Yu Yu Hakusho
年  代 2023
国  家 日本/美国
类  别 动作/奇幻
语  言 日语
字  幕 中简/中繁
评  分 7.2/10 from 4,718 users
链  接 https://movie.douban.com/subject/35295566
文件大小 9.55 GB
单集片长 45 Min
集  数 5
导  演 月川翔 Sho Tsukikawa
主  演 北村匠海 Takumi Kitamura
     志尊淳 Jun Shison
     本乡奏多 Kanata Hongo
     上杉柊平 Shuhei Uesugi
     白石圣 Sei Shiraishi
     古川琴音 Kotone Furukawa
     见上爱 Ai Mikami
     清水寻也 Hiroya Shimizu
     町田启太 Keita Machida
     梶芽衣子 Meiko Kaji
     泷藤贤一 Kenichi Takito

简介

  该剧集改编自富坚义博的传奇漫画,自1990年起,该漫画连续四年在《周刊少年Jump》上连载,由集英社出版。漫画故事围绕成天打架的浦饭幽助展开,他为了保护一个孩子而在事故中丧生。死后的他还能看到地上躺着自己的尸体。就在他发愣时,一名叫牡丹的女子自称是灵界向导,并来向他传达了一个令人震惊的事实:灵界没料到浦饭幽助这样的不良少年会因为行善而死,他在天堂或地狱都没有容身之地。于是,幽助得到了重生的机会,并在通过考验后成为了一名灵界侦探。此后,幽助便陷入了一个攸关人间界、魔界和灵界的谜团之中。

Video
Format                         : AVC
Format/Info                    : Advanced Video Codec
Format profile                 : High@L4
Format settings                : CABAC / 4 Ref Frames
Format settings, CABAC         : Yes
Format settings, Reference fra : 4 frames
Codec ID                       : V_MPEG4/ISO/AVC
Duration                       : 55 min 40 s
Bit rate mode                  : Variable
Bit rate                       : 4 708 kb/s
Maximum bit rate               : 20.0 Mb/s
Width                          : 1 920 pixels
Height                         : 1 080 pixels
Display aspect ratio           : 16:9
Frame rate mode                : Constant
Frame rate                     : 24.000 FPS
Color space                    : YUV
Chroma subsampling             : 4:2:0
Bit depth                      : 8 bits
Scan type                      : Progressive
Bits/(Pixel*Frame)             : 0.095
Stream size                    : 1.83 GiB (86%)

Audio
Format                         : E-AC-3 JOC
Format/Info                    : Enhanced AC-3 with Joint Object Coding
Commercial name                : Dolby Digital Plus with Dolby Atmos
Codec ID                       : A_EAC3
Duration                       : 55 min 40 s
Bit rate mode                  : Constant
Bit rate                       : 768 kb/s
Channel(s)                     : 6 channels
Channel layout                 : L R C LFE Ls Rs
Sampling rate                  : 48.0 kHz
Frame rate                     : 31.250 FPS (1536 SPF)
Compression mode               : Lossy
Stream size                    : 306 MiB (14%)
Language                       : Japanese
Service kind                   : Complete Main

截图






BT种子下载
梦幻天堂·龙网(www.LWgod.org).幽游白书.真人版.全5集.torrent (49.53 KB, 下载次数: 4717)

0

主题

408

帖子

3387

积分

赤血神龙

Rank: 20Rank: 20Rank: 20Rank: 20

积分
3387
发表于 2023-12-18 17:34:24 | 显示全部楼层
楼主辛苦,多谢分享。

0

主题

263

帖子

2834

积分

赤血神龙

Rank: 20Rank: 20Rank: 20Rank: 20

积分
2834
发表于 2023-12-18 17:39:55 | 显示全部楼层
感谢航子,辛苦发片!!希望能多发布一些优秀的剧集!

0

主题

151

帖子

596

积分

升龙霸·VIP

Rank: 22Rank: 22Rank: 22Rank: 22

积分
596

龙网VIP·银星龙网VIP·银章

发表于 2023-12-18 18:00:16 | 显示全部楼层
感谢更新,很是及时

3

主题

1万

帖子

1万

积分

神界龙王

Rank: 30Rank: 30Rank: 30Rank: 30

积分
16453
发表于 2023-12-18 18:16:14 | 显示全部楼层
楼主费神了,这么新的剧都有!{:4_133:}{:4_133:}{:4_133:}

0

主题

87

帖子

358

积分

龙少爷

Rank: 10Rank: 10

积分
358
发表于 2023-12-18 18:46:41 | 显示全部楼层
太雷人了哈哈

0

主题

274

帖子

716

积分

龙的传人

Rank: 13Rank: 13Rank: 13

积分
716
发表于 2023-12-18 18:51:52 | 显示全部楼层
哈哈哈~~終於讓我找到了@@

1

主题

733

帖子

2498

积分

赤血神龙

Rank: 20Rank: 20Rank: 20Rank: 20

积分
2498
QQ
发表于 2023-12-18 19:01:27 | 显示全部楼层
真是毁童年的真人

2

主题

125

帖子

1707

积分

升龙霸·VIP

Rank: 22Rank: 22Rank: 22Rank: 22

积分
1707

龙网VIP·银星龙网VIP·银牌

发表于 2023-12-18 19:05:48 | 显示全部楼层
重温儿时的经典

1

主题

491

帖子

1272

积分

神龙

Rank: 15Rank: 15Rank: 15

积分
1272
发表于 2023-12-18 19:26:55 | 显示全部楼层
谢谢航子分享日剧

1

主题

351

帖子

1528

积分

神龙

Rank: 15Rank: 15Rank: 15

积分
1528
发表于 2023-12-18 19:30:45 | 显示全部楼层
谢谢航子分享

5

主题

58

帖子

1765

积分

神龙

Rank: 15Rank: 15Rank: 15

积分
1765
发表于 2023-12-18 19:33:02 | 显示全部楼层
楼主真棒!

0

主题

1万

帖子

1万

积分

神界龙王

Rank: 30Rank: 30Rank: 30Rank: 30

积分
16352
QQ
发表于 2023-12-18 19:34:15 | 显示全部楼层
感谢航子分享
一切终会过去

2

主题

1774

帖子

2354

积分

赤血神龙

Rank: 20Rank: 20Rank: 20Rank: 20

积分
2354
发表于 2023-12-18 19:37:08 | 显示全部楼层
不忍直视啊。。。。

0

主题

167

帖子

809

积分

龙的传人

Rank: 13Rank: 13Rank: 13

积分
809
发表于 2023-12-18 19:38:47 | 显示全部楼层
这也太棒了,谢谢分享
您需要登录后才可以回帖 登录 | 立即注册

本版积分规则

小黑屋|梦幻天堂·龙网

GMT+8, 2024-4-23 00:54 , Processed in 0.200723 second(s), 29 queries , Gzip On.

Powered by Discuz! X3.2

© 2001-2013 Comsenz Inc.

快速回复 返回顶部 返回列表