梦幻天堂·龙网

 找回密码
 立即注册
查看: 13437|回复: 105

[最新电影龙网转发] 【龙网转发】【美国2023最新火爆动作喜剧】【家庭计划】【WebDL-1080p.MKV】【中字】

[复制链接]

2841

主题

3万

帖子

7万

积分

九鼎龙王·坛主

偶系漂漂滴龙民

Rank: 46Rank: 46Rank: 46Rank: 46Rank: 46Rank: 46

积分
75886

航子大神勋章

发表于 2023-12-20 14:35:57 | 显示全部楼层 |阅读模式
海报



译  名 家庭计划/全家逃走中(台)
片  名 The Family Plan
年  代 2023
国  家 美国
类  别 动作/喜剧
语  言 英语
字  幕 中简/中繁/英文
评  分 6.6/10 from 2,454 users
链  接 https://movie.douban.com/subject/36127988
文件大小 8.84 GB
片  长 118 Min
导  演 西蒙·赛伦·琼斯 Simon Cellan Jones
主  演 马克·沃尔伯格 Mark Wahlberg
     米歇尔·莫纳汉 Michelle Monaghan
     塞伦·希德 Ciaran Hinds
     佐伊·玛格丽特·科莱蒂 Zoe Margaret Colletti
     凡·克罗斯比 Van Crosby
     李美琪 Maggie Q
     菲利西亚·皮尔森 Felicia Pearson
     萨伊德·塔格马奥 Said Taghmaoui
     约翰尼·科瓦内 Jonny Coyne
     Savanna Gann
     Valkyrae

简介

  一个顶级杀手(马克·沃尔伯格 饰)退隐江湖,现在是住在郊区的全职奶爸,没想到仇人找上门来。他必须带着全家去拉斯维加斯旅行同时,干掉追杀他的人。讲述一个住在郊区的父亲在他隐藏的过往即将揭秘时、如何带领家人逃亡的故事。

Video
Format                         : AVC
Format/Info                    : Advanced Video Codec
Format profile                 : High@L4
Format settings                : CABAC / 5 Ref Frames
Format settings, CABAC         : Yes
Format settings, Reference fra : 5 frames
Codec ID                       : V_MPEG4/ISO/AVC
Duration                       : 1 h 58 min
Bit rate                       : 9 882 kb/s
Width                          : 1 920 pixels
Height                         : 804 pixels
Display aspect ratio           : 2.40:1
Frame rate mode                : Constant
Frame rate                     : 23.976 FPS
Color space                    : YUV
Chroma subsampling             : 4:2:0
Bit depth                      : 8 bits
Scan type                      : Progressive
Bits/(Pixel*Frame)             : 0.267
Stream size                    : 8.20 GiB (93%)
Color range                    : Limited
Color primaries                : BT.709
Transfer characteristics       : BT.709
Matrix coefficients            : BT.709

Audio
Format                         : E-AC-3 JOC
Format/Info                    : Enhanced AC-3 with Joint Object Coding
Commercial name                : Dolby Digital Plus with Dolby Atmos
Codec ID                       : A_EAC3
Duration                       : 1 h 58 min
Bit rate mode                  : Constant
Bit rate                       : 768 kb/s
Channel(s)                     : 6 channels
Channel layout                 : L R C LFE Ls Rs
Sampling rate                  : 48.0 kHz
Frame rate                     : 31.250 FPS (1536 SPF)
Compression mode               : Lossy
Stream size                    : 652 MiB (7%)
Language                       : English
Service kind                   : Complete Main

截图




BT种子下载
梦幻天堂·龙网(www.LWgod.org).家庭计划.全家逃走中.torrent (45.59 KB, 下载次数: 4373)

19

主题

6万

帖子

7万

积分

天地独尊龙王

梦幻天使

Rank: 33Rank: 33Rank: 33Rank: 33Rank: 33

积分
76328
发表于 2023-12-20 15:17:54 | 显示全部楼层
非常感谢航子分享精彩影片!

0

主题

872

帖子

1323

积分

神龙

Rank: 15Rank: 15Rank: 15

积分
1323
发表于 2023-12-20 15:49:42 | 显示全部楼层
感谢航子的分享

0

主题

1万

帖子

1万

积分

神界龙王

Rank: 30Rank: 30Rank: 30Rank: 30

积分
16352
QQ
发表于 2023-12-20 15:49:55 | 显示全部楼层
感谢航子分享
一切终会过去

1

主题

733

帖子

2498

积分

赤血神龙

Rank: 20Rank: 20Rank: 20Rank: 20

积分
2498
QQ
发表于 2023-12-20 16:28:40 | 显示全部楼层
马克·沃尔伯格不错

0

主题

408

帖子

3387

积分

赤血神龙

Rank: 20Rank: 20Rank: 20Rank: 20

积分
3387
发表于 2023-12-20 16:35:29 | 显示全部楼层
楼主辛苦,多谢分享。

1

主题

182

帖子

896

积分

升龙霸·VIP

Rank: 22Rank: 22Rank: 22Rank: 22

积分
896

龙网VIP·金牌

发表于 2023-12-20 16:56:03 | 显示全部楼层
感谢航子分享精彩影片

0

主题

83

帖子

183

积分

龙之子

Rank: 8Rank: 8Rank: 8Rank: 8

积分
183
发表于 2023-12-20 17:07:14 | 显示全部楼层
感谢航子分享

0

主题

8388

帖子

1万

积分

神界龙王

Rank: 30Rank: 30Rank: 30Rank: 30

积分
12315
发表于 2023-12-20 17:29:02 | 显示全部楼层

0

主题

772

帖子

1886

积分

神龙

Rank: 15Rank: 15Rank: 15

积分
1886
发表于 2023-12-20 17:30:13 | 显示全部楼层
感谢航子的分享

0

主题

2962

帖子

4222

积分

赤血神龙

Rank: 20Rank: 20Rank: 20Rank: 20

积分
4222
发表于 2023-12-20 18:31:18 | 显示全部楼层
感谢航子分享!

0

主题

909

帖子

2263

积分

赤血神龙

Rank: 20Rank: 20Rank: 20Rank: 20

积分
2263

龙网爱心勋章

发表于 2023-12-20 19:27:00 | 显示全部楼层
航子辛苦………

0

主题

909

帖子

2263

积分

赤血神龙

Rank: 20Rank: 20Rank: 20Rank: 20

积分
2263

龙网爱心勋章

发表于 2023-12-20 19:27:11 | 显示全部楼层
航子辛苦………

1

主题

491

帖子

1272

积分

神龙

Rank: 15Rank: 15Rank: 15

积分
1272
发表于 2023-12-20 20:33:01 | 显示全部楼层
谢谢分享影片

0

主题

850

帖子

1572

积分

升龙霸·VIP

Rank: 22Rank: 22Rank: 22Rank: 22

积分
1572

赞助会员 LV5

发表于 2023-12-20 20:35:44 | 显示全部楼层
谢谢分享影片
您需要登录后才可以回帖 登录 | 立即注册

本版积分规则

小黑屋|梦幻天堂·龙网

GMT+8, 2024-4-22 23:17 , Processed in 0.683666 second(s), 29 queries , Gzip On.

Powered by Discuz! X3.2

© 2001-2013 Comsenz Inc.

快速回复 返回顶部 返回列表