梦幻天堂·龙网

 找回密码
 立即注册
查看: 13135|回复: 94

[最新电影龙网转发] 【龙网转发】【美2023最新热门悬疑惊悚大片】【感恩节】【WebDL-1080p.MKV】【中字】

[复制链接]

2841

主题

3万

帖子

7万

积分

九鼎龙王·坛主

偶系漂漂滴龙民

Rank: 46Rank: 46Rank: 46Rank: 46Rank: 46Rank: 46

积分
75886

航子大神勋章

发表于 2023-12-21 19:03:21 | 显示全部楼层 |阅读模式
海报





译  名 感恩节/恐怖感恩劫(台)/血腥假期(港)
片  名 Thanksgiving
年  代 2023
国  家 美国
类  别 悬疑/惊悚/恐怖
语  言 英语
字  幕 中简/中繁/英文
评  分 6.4/10 from 1,986 users
链  接 https://movie.douban.com/subject/3775098
文件大小 6.33 GB
片  长 106 Min
导  演 伊莱·罗斯 Eli Roth
主  演 帕特里克·德姆西 Patrick Dempsey
     泰·奥尔森 Ty Olsson
     吉娜·格申 Gina Gershon
     加布里埃尔·达文波特 Gabriel Davenport
     凯伦·克里奇 Karen Cliche
     内尔·维拉克 Nell Verlaque
     里克·霍夫曼 Rick Hoffman
     德里克·麦克加特 Derek McGrath
     凯瑟琳·特罗维尔 Katherine Trowell
     杰伦·托马斯·布鲁克斯 Jalen Thomas Brooks
     米卡·阿蒙森 Mika Amonsen

简介

  一个连环杀人犯前往马萨诸塞州小镇,想把镇上居民打造成感恩节活人雕刻版。影片讲述在黑色星期五骚乱事件以悲剧告终后,一名受感恩节启发的神秘连环杀手开始对马萨诸塞州普利茅斯进行恐吓,在这个臭名昭著的节日的诞生地掀起恐怖风暴。

Video
Format                         : AVC
Format/Info                    : Advanced Video Codec
Format profile                 : High@L4
Format settings                : CABAC / 4 Ref Frames
Format settings, CABAC         : Yes
Format settings, Reference fra : 4 frames
Codec ID                       : V_MPEG4/ISO/AVC
Duration                       : 1 h 45 min
Bit rate mode                  : Constant
Bit rate                       : 7 899 kb/s
Nominal bit rate               : 10 000 kb/s
Width                          : 1 920 pixels
Height                         : 800 pixels
Display aspect ratio           : 2.40:1
Frame rate mode                : Constant
Frame rate                     : 23.976 (24000/1001) FPS
Color space                    : YUV
Chroma subsampling             : 4:2:0
Bit depth                      : 8 bits
Scan type                      : Progressive
Bits/(Pixel*Frame)             : 0.215
Stream size                    : 5.85 GiB (92%)
Color range                    : Limited
Color primaries                : BT.709
Transfer characteristics       : BT.709
Matrix coefficients            : BT.709

Audio
Format                         : E-AC-3
Format/Info                    : Enhanced AC-3
Commercial name                : Dolby Digital Plus
Codec ID                       : A_EAC3
Duration                       : 1 h 45 min
Bit rate mode                  : Constant
Bit rate                       : 640 kb/s
Channel(s)                     : 6 channels
Channel layout                 : L R C LFE Ls Rs
Sampling rate                  : 48.0 kHz
Frame rate                     : 31.250 FPS (1536 SPF)
Compression mode               : Lossy
Stream size                    : 485 MiB (7%)
Language                       : English
Service kind                   : Complete Main

截图




BT种子下载
梦幻天堂·龙网(www.LWgod.org).感恩节.恐怖感恩劫.血腥假期.torrent (33.03 KB, 下载次数: 3078)

点评

谢谢分享!  发表于 2023-12-22 17:49

0

主题

1万

帖子

1万

积分

神界龙王

Rank: 30Rank: 30Rank: 30Rank: 30

积分
16352
QQ
发表于 2023-12-21 19:40:20 | 显示全部楼层
感谢航子分享
一切终会过去

1

主题

733

帖子

2498

积分

赤血神龙

Rank: 20Rank: 20Rank: 20Rank: 20

积分
2498
QQ
发表于 2023-12-21 19:45:51 | 显示全部楼层
楼主辛苦了

0

主题

95

帖子

689

积分

升龙霸·VIP

Rank: 22Rank: 22Rank: 22Rank: 22

积分
689

龙网VIP·银星

发表于 2023-12-21 20:03:03 | 显示全部楼层
航子辛苦了

0

主题

2962

帖子

4222

积分

赤血神龙

Rank: 20Rank: 20Rank: 20Rank: 20

积分
4222
发表于 2023-12-21 20:05:31 | 显示全部楼层
感谢航子分享!

1

主题

491

帖子

1272

积分

神龙

Rank: 15Rank: 15Rank: 15

积分
1272
发表于 2023-12-21 20:13:28 | 显示全部楼层
感谢航子分享恐怖片

1

主题

237

帖子

1810

积分

神龙

Rank: 15Rank: 15Rank: 15

积分
1810
发表于 2023-12-21 20:29:58 | 显示全部楼层

楼主辛苦了

0

主题

408

帖子

3387

积分

赤血神龙

Rank: 20Rank: 20Rank: 20Rank: 20

积分
3387
发表于 2023-12-21 20:31:24 | 显示全部楼层
楼主辛苦,多谢分享。

19

主题

6万

帖子

7万

积分

天地独尊龙王

梦幻天使

Rank: 33Rank: 33Rank: 33Rank: 33Rank: 33

积分
76328
发表于 2023-12-21 20:34:35 | 显示全部楼层
非常感谢航子分享精彩影片!

1

主题

1万

帖子

2万

积分

神界龙王

Rank: 30Rank: 30Rank: 30Rank: 30

积分
21885

龙网爱心勋章

发表于 2023-12-21 20:45:29 | 显示全部楼层

楼主辛苦,多谢分享。
笑看红尘

2

主题

2万

帖子

2万

积分

神界龙王

Rank: 30Rank: 30Rank: 30Rank: 30

积分
29201
发表于 2023-12-21 21:21:44 | 显示全部楼层
多谢航子分享
戏剧人生

467

主题

1万

帖子

2万

积分

神界龙王

Rank: 30Rank: 30Rank: 30Rank: 30

积分
25852

龙网爱心勋章

发表于 2023-12-21 22:26:23 | 显示全部楼层
谢谢分享影片

0

主题

9433

帖子

9900

积分

海龙王

Rank: 25Rank: 25Rank: 25Rank: 25Rank: 25

积分
9900
发表于 2023-12-21 22:48:11 | 显示全部楼层
恐怖悬疑惊悚影片。感谢航子分享!

0

主题

8388

帖子

1万

积分

神界龙王

Rank: 30Rank: 30Rank: 30Rank: 30

积分
12315
发表于 2023-12-22 00:08:38 | 显示全部楼层

0

主题

8059

帖子

1万

积分

神界龙王

Rank: 30Rank: 30Rank: 30Rank: 30

积分
10414
发表于 2023-12-22 08:26:31 | 显示全部楼层
感谢航子分享
您需要登录后才可以回帖 登录 | 立即注册

本版积分规则

小黑屋|梦幻天堂·龙网

GMT+8, 2024-4-22 23:39 , Processed in 0.748308 second(s), 30 queries , Gzip On.

Powered by Discuz! X3.2

© 2001-2013 Comsenz Inc.

快速回复 返回顶部 返回列表