梦幻天堂·龙网

 找回密码
 立即注册
查看: 15931|回复: 100

[最新电影龙网转发] 【龙网转发】【中2023反杀犯罪悬疑大片】【拯救嫌疑人】【WebDL-2160p.MKV】【国语】

[复制链接]

2841

主题

3万

帖子

7万

积分

九鼎龙王·坛主

偶系漂漂滴龙民

Rank: 46Rank: 46Rank: 46Rank: 46Rank: 46Rank: 46

积分
75886

航子大神勋章

发表于 2023-12-22 16:51:11 | 显示全部楼层 |阅读模式
海报





译  名 拯救嫌疑人/中国版七天
片  名 Last Suspect
年  代 2023
国  家 中国
类  别 犯罪/悬疑/剧情
语  言 汉语普通话
字  幕 中英硬字幕
评  分 6.2/10 from 74,427 users
链  接 https://movie.douban.com/subject/35875180
文件大小 4.20 GB
片  长 119 Min
导  演 张末 Mo Zhang
主  演 张小斐 Xiaofei Zhang
     李鸿其 Hong-Chi Lee
     惠英红 Kara Wai Ying Hung
     王子异 Boogie Wang
     洪浚嘉 Junjia Hong
     尹子维 Terence Yin
     包上恩 Shangen Bao
     王弋萱 Xuanxuan
     汤镇业 Ken Tong
     刘欢 Huan Liu
     来喜 Laixi

简介

  华人金牌女律师陈智琪(张小斐 饰)在女儿被绑架后,接到神秘电话要求她在五天之内为一位死刑犯做无罪辩护,否则撕票!被逼无奈下陈智琪联手警察金志雄(李鸿其 饰)展开调查,在搜寻线索的过程中,她为死刑犯辩护的行为受到了死者家属林淑娥(惠英红 饰)的质疑。这场事关女儿生死的辩护,陈智琪绝不能输!然而随着案情深入她发现自己被卷入另一场阴谋之中……

Video
Format                         : HEVC
Format/Info                    : High Efficiency Video Coding
Format profile                 : Main 10 @ L5.1 @ Main
Codec ID                       : V_MPEGH/ISO/HEVC
Duration                       : 1 h 59 min
Bit rate                       : 4 782 kb/s
Width                          : 3 840 pixels
Height                         : 1 608 pixels
Display aspect ratio           : 2.40:1
Frame rate mode                : Constant
Frame rate                     : 60.000 FPS
Color space                    : YUV
Chroma subsampling             : 4:2:0
Bit depth                      : 10 bits
Bits/(Pixel*Frame)             : 0.013
Stream size                    : 3.99 GiB (95%)
Color range                    : Limited
Color primaries                : BT.709
Transfer characteristics       : BT.709
Matrix coefficients            : BT.709

Audio
Format                         : E-AC-3
Format/Info                    : Enhanced AC-3
Commercial name                : Dolby Digital Plus
Codec ID                       : A_EAC3
Duration                       : 1 h 59 min
Bit rate mode                  : Constant
Bit rate                       : 256 kb/s
Channel(s)                     : 6 channels
Channel layout                 : L R C LFE Ls Rs
Sampling rate                  : 48.0 kHz
Frame rate                     : 31.250 FPS (1536 SPF)
Compression mode               : Lossy
Stream size                    : 219 MiB (5%)
Service kind                   : Complete Main

截图




BT种子下载
梦幻天堂·龙网(www.LWgod.org).拯救嫌疑人.中国版七天.torrent (22.39 KB, 下载次数: 4268)

0

主题

408

帖子

3387

积分

赤血神龙

Rank: 20Rank: 20Rank: 20Rank: 20

积分
3387
发表于 2023-12-22 17:29:45 | 显示全部楼层
楼主辛苦,多谢分享。

1

主题

8819

帖子

1万

积分

神界龙王

Rank: 30Rank: 30Rank: 30Rank: 30

积分
13018
发表于 2023-12-22 17:41:44 | 显示全部楼层
感谢航子分享

19

主题

6万

帖子

7万

积分

天地独尊龙王

梦幻天使

Rank: 33Rank: 33Rank: 33Rank: 33Rank: 33

积分
76328
发表于 2023-12-22 17:55:48 | 显示全部楼层
非常感谢航子分享精彩影片!

1

主题

1472

帖子

2599

积分

赤血神龙

Rank: 20Rank: 20Rank: 20Rank: 20

积分
2599
发表于 2023-12-22 17:56:47 | 显示全部楼层
感谢航子分享!

1

主题

1449

帖子

4388

积分

赤血神龙

Rank: 20Rank: 20Rank: 20Rank: 20

积分
4388
QQ
发表于 2023-12-22 18:13:15 | 显示全部楼层
tks for share.............

0

主题

1万

帖子

1万

积分

神界龙王

Rank: 30Rank: 30Rank: 30Rank: 30

积分
16352
QQ
发表于 2023-12-22 18:24:25 | 显示全部楼层
感谢航子分享
一切终会过去

0

主题

2962

帖子

4222

积分

赤血神龙

Rank: 20Rank: 20Rank: 20Rank: 20

积分
4222
发表于 2023-12-22 18:28:25 | 显示全部楼层
感谢航子分享!

0

主题

545

帖子

2127

积分

赤血神龙

Rank: 20Rank: 20Rank: 20Rank: 20

积分
2127
发表于 2023-12-22 19:09:28 | 显示全部楼层
感谢航子分享

1

主题

733

帖子

2498

积分

赤血神龙

Rank: 20Rank: 20Rank: 20Rank: 20

积分
2498
QQ
发表于 2023-12-22 19:11:28 | 显示全部楼层

感谢航子分享

0

主题

8388

帖子

1万

积分

神界龙王

Rank: 30Rank: 30Rank: 30Rank: 30

积分
12315
发表于 2023-12-22 21:11:00 | 显示全部楼层

2

主题

2万

帖子

2万

积分

神界龙王

Rank: 30Rank: 30Rank: 30Rank: 30

积分
29201
发表于 2023-12-22 21:23:46 | 显示全部楼层
多谢分享
戏剧人生

1

主题

32

帖子

103

积分

龙之子

Rank: 8Rank: 8Rank: 8Rank: 8

积分
103
发表于 2023-12-22 21:31:19 | 显示全部楼层
感谢感谢分享

0

主题

263

帖子

2834

积分

赤血神龙

Rank: 20Rank: 20Rank: 20Rank: 20

积分
2834
发表于 2023-12-22 21:31:32 | 显示全部楼层
感谢航子,辛苦发片!

1

主题

1万

帖子

2万

积分

神界龙王

Rank: 30Rank: 30Rank: 30Rank: 30

积分
21885

龙网爱心勋章

发表于 2023-12-22 21:56:58 | 显示全部楼层

感谢航子分享!
笑看红尘
您需要登录后才可以回帖 登录 | 立即注册

本版积分规则

小黑屋|梦幻天堂·龙网

GMT+8, 2024-4-22 23:06 , Processed in 0.673160 second(s), 29 queries , Gzip On.

Powered by Discuz! X3.2

© 2001-2013 Comsenz Inc.

快速回复 返回顶部 返回列表