梦幻天堂·龙网

 找回密码
 立即注册
查看: 22875|回复: 167

[最新电影龙网转发] 【龙网转发】【扎导2023视效巨制】【月球叛军:火之女】【WebDL-1080p.MKV】【中字】

  [复制链接]

2841

主题

3万

帖子

7万

积分

九鼎龙王·坛主

偶系漂漂滴龙民

Rank: 46Rank: 46Rank: 46Rank: 46Rank: 46Rank: 46

积分
75886

航子大神勋章

发表于 2023-12-25 17:45:24 | 显示全部楼层 |阅读模式
海报





译  名 月球叛军:火之女/Rebel Moon-第1部:火之女/卫星叛军:火之女/月球叛军1/反叛行星/反叛之月
片  名 Rebel Moon: Part One - A Child of Fire
年  代 2023
国  家 美国/匈牙利/瑞典/丹麦/英国
类  别 动作/科幻/奇幻/冒险
语  言 英语
字  幕 中简/中繁/英文
评  分 5.4/10 from 4,700 users
链  接 https://movie.douban.com/subject/35517441
文件大小 5.33 GB
片  长 133 Min
导  演 扎克·施奈德 Zack Snyder
主  演 索菲亚·波多拉 Sofia Boutella
     艾德·斯克林 Ed Skrein
     克利欧佩特拉·科尔曼 Cleopatra Coleman
     加利·艾尔维斯 Cary Elwes
     安东尼·霍普金斯 Anthony Hopkins
     查理·汉纳姆 Charlie Hunnam
     吉娜·马隆 Jena Malone
     米希尔·赫伊斯曼 Michiel Huisman
     寇瑞·斯托尔 Corey Stoll
     杰曼·翰苏 Djimon Hounsou
     斯图尔特·马丁 Stuart Martin
     裴斗娜 Doona Bae

简介

  广袤的银河系,已经被名为巴里萨利斯(艾德·斯克林 饰)的暴君所统治,并建立起庞大而残酷的帝国。位于银河系边缘的一座殖民星球,人们过着拮据贫苦的生活。这一天,帝国军舰突然出现在星球上空,狂暴的军官出现在人民面前,他不顾当地人的生计和死活,命令他们在规定时间内交够足够的粮食。军官走后,留下一队士兵监督人民劳作。谁曾想,一次突发事件导致女孩柯拉(索菲亚·波多拉 饰)和帝国的机器人吉米(安东尼·霍普金斯 配音)反抗并杀掉了这些士兵。为了对抗巴里萨利斯的大军,柯拉等人出发前往抵抗组织“血斧”。

  一场冒险就此展开……

Video
Format                         : AVC
Format/Info                    : Advanced Video Codec
Format profile                 : Main@L4
Format settings                : CABAC / 3 Ref Frames
Format settings, CABAC         : Yes
Format settings, Reference fra : 3 frames
Codec ID                       : V_MPEG4/ISO/AVC
Duration                       : 2 h 15 min
Bit rate mode                  : Variable
Bit rate                       : 5 000 kb/s
Maximum bit rate               : 7 500 kb/s
Width                          : 1 920 pixels
Height                         : 1 080 pixels
Display aspect ratio           : 16:9
Frame rate mode                : Constant
Frame rate                     : 24.000 FPS
Color space                    : YUV
Chroma subsampling             : 4:2:0
Bit depth                      : 8 bits
Scan type                      : Progressive
Bits/(Pixel*Frame)             : 0.100
Stream size                    : 4.59 GiB (86%)

Audio
Format                         : E-AC-3 JOC
Format/Info                    : Enhanced AC-3 with Joint Object Coding
Commercial name                : Dolby Digital Plus with Dolby Atmos
Codec ID                       : A_EAC3
Duration                       : 2 h 15 min
Bit rate mode                  : Constant
Bit rate                       : 768 kb/s
Channel(s)                     : 6 channels
Channel layout                 : L R C LFE Ls Rs
Sampling rate                  : 48.0 kHz
Frame rate                     : 31.250 FPS (1536 SPF)
Compression mode               : Lossy
Stream size                    : 747 MiB (14%)
Language                       : English
Service kind                   : Complete Main

截图




BT种子下载
梦幻天堂·龙网(www.LWgod.org).月球叛军:火之女.torrent (28 KB, 下载次数: 6706)

0

主题

274

帖子

716

积分

龙的传人

Rank: 13Rank: 13Rank: 13

积分
716
发表于 2023-12-25 18:28:28 | 显示全部楼层
感謝樓主的分享囉!!

0

主题

2962

帖子

4222

积分

赤血神龙

Rank: 20Rank: 20Rank: 20Rank: 20

积分
4222
发表于 2023-12-25 18:47:05 | 显示全部楼层
感谢航子分享!

4

主题

747

帖子

1483

积分

神龙

Rank: 15Rank: 15Rank: 15

积分
1483
发表于 2023-12-25 19:12:05 | 显示全部楼层
好电影谢谢

0

主题

143

帖子

1538

积分

神龙

Rank: 15Rank: 15Rank: 15

积分
1538
发表于 2023-12-25 19:19:12 | 显示全部楼层
感谢楼主辛苦发片

0

主题

540

帖子

1362

积分

神龙

Rank: 15Rank: 15Rank: 15

积分
1362
发表于 2023-12-25 19:29:14 | 显示全部楼层
THANKS FOR SHARING!

19

主题

6万

帖子

7万

积分

天地独尊龙王

梦幻天使

Rank: 33Rank: 33Rank: 33Rank: 33Rank: 33

积分
76328
发表于 2023-12-25 19:43:21 | 显示全部楼层
非常感谢航子分享精彩影片!

0

主题

95

帖子

689

积分

升龙霸·VIP

Rank: 22Rank: 22Rank: 22Rank: 22

积分
689

龙网VIP·银星

发表于 2023-12-25 19:52:44 | 显示全部楼层
航子辛苦了

1

主题

733

帖子

2498

积分

赤血神龙

Rank: 20Rank: 20Rank: 20Rank: 20

积分
2498
QQ
发表于 2023-12-25 20:06:36 | 显示全部楼层
看了一半,凑乎八

0

主题

3820

帖子

4880

积分

赤血神龙

Rank: 20Rank: 20Rank: 20Rank: 20

积分
4880
发表于 2023-12-25 20:06:55 | 显示全部楼层
感谢楼主分享精彩影片!

0

主题

1万

帖子

1万

积分

神界龙王

Rank: 30Rank: 30Rank: 30Rank: 30

积分
16352
QQ
发表于 2023-12-25 20:14:20 | 显示全部楼层
感谢航子分享
一切终会过去

1

主题

53

帖子

373

积分

龙少爷

Rank: 10Rank: 10

积分
373
发表于 2023-12-25 20:27:07 | 显示全部楼层
感谢楼主分享!

2

主题

2万

帖子

2万

积分

神界龙王

Rank: 30Rank: 30Rank: 30Rank: 30

积分
29201
发表于 2023-12-25 21:00:03 | 显示全部楼层
多谢航子分享
戏剧人生

1

主题

1472

帖子

2599

积分

赤血神龙

Rank: 20Rank: 20Rank: 20Rank: 20

积分
2599
发表于 2023-12-25 21:25:27 | 显示全部楼层
感谢航子分享!

467

主题

1万

帖子

2万

积分

神界龙王

Rank: 30Rank: 30Rank: 30Rank: 30

积分
25852

龙网爱心勋章

发表于 2023-12-25 21:27:19 | 显示全部楼层
多谢楼主分享。
您需要登录后才可以回帖 登录 | 立即注册

本版积分规则

小黑屋|梦幻天堂·龙网

GMT+8, 2024-4-22 23:40 , Processed in 0.206120 second(s), 27 queries , Gzip On.

Powered by Discuz! X3.2

© 2001-2013 Comsenz Inc.

快速回复 返回顶部 返回列表