梦幻天堂·龙网

 找回密码
 立即注册
查看: 15633|回复: 95

[最新电影龙网转发] 【龙网转发】【美国2023末世悬疑惊悚大片】【断网假期】【WebDL-1080p.MKV】【中字】

[复制链接]

2841

主题

3万

帖子

7万

积分

九鼎龙王·坛主

偶系漂漂滴龙民

Rank: 46Rank: 46Rank: 46Rank: 46Rank: 46Rank: 46

积分
75886

航子大神勋章

发表于 2023-12-27 16:28:07 | 显示全部楼层 |阅读模式
海报





译  名 断网假期/断讯/抛开世界/远离世界/断网假日
片  名 Leave the World Behind
年  代 2023
国  家 美国
类  别 剧情/悬疑/惊悚
语  言 英语
字  幕 中简/中繁/英文
评  分 6.0/10 from 17,581 users
链  接 https://movie.douban.com/subject/35151492
文件大小 5.63 GB
片  长 140 Min
导  演 山姆·艾斯梅尔 Sam Esmail
主  演 朱莉娅·罗伯茨 Julia Roberts
     伊桑·霍克 Ethan Hawke
     凯文·贝肯 Kevin Bacon
     马赫沙拉·阿里 Mahershala Ali
     米哈拉·赫罗德 Myha'la Herrold
     瓦妮莎·阿斯皮利亚加 Vanessa Aspillaga
     法拉·麦肯齐 Farrah Mackenzie
     查理·埃文斯 Charlie Evans
     乔什·德伦宁 Josh Drennen
     艾瑞卡·赵 Erica Cho
     麦迪逊·杰西卡·贝内特 Madison Jessica Bennett

简介

  阿曼达(朱莉娅·罗伯茨 饰)和她的丈夫克莱(伊桑·霍克 饰)是一对幸福美满的夫妻,阳光明媚的日子里,阿曼达一家四口前往长岛享受美好假期。未曾想意外突然降临,一艘万吨邮轮毫无征兆冲上沙滩。惊恐万分的一家人回到他们租住的别墅,这时发现网络却断掉,迟迟未曾恢复。夜幕降临,别墅的主人乔治(马赫沙拉·阿里 饰)和女儿罗丝(米哈拉·赫罗德 饰)不约而至,从对方口中得知,城里的网络却不中断,他不得已才返回住处。半信半疑的阿曼达从电视新闻中得知,整个城市遭到了莫名攻击,网络全面中断。

  次日醒来,情况依旧没有好转,而这个世界仿佛变得万分陌生,无比疯狂……

Video
Format                         : AVC
Format/Info                    : Advanced Video Codec
Format profile                 : Main@L4
Format settings                : CABAC / 3 Ref Frames
Format settings, CABAC         : Yes
Format settings, Reference fra : 3 frames
Codec ID                       : V_MPEG4/ISO/AVC
Duration                       : 2 h 21 min
Bit rate mode                  : Variable
Bit rate                       : 5 000 kb/s
Maximum bit rate               : 7 500 kb/s
Width                          : 1 920 pixels
Height                         : 1 080 pixels
Display aspect ratio           : 16:9
Frame rate mode                : Constant
Frame rate                     : 24.000 FPS
Color space                    : YUV
Chroma subsampling             : 4:2:0
Bit depth                      : 8 bits
Scan type                      : Progressive
Bits/(Pixel*Frame)             : 0.100
Stream size                    : 4.87 GiB (86%)

Audio
Format                         : E-AC-3 JOC
Format/Info                    : Enhanced AC-3 with Joint Object Coding
Commercial name                : Dolby Digital Plus with Dolby Atmos
Codec ID                       : A_EAC3
Duration                       : 2 h 19 min
Bit rate mode                  : Constant
Bit rate                       : 768 kb/s
Channel(s)                     : 6 channels
Channel layout                 : L R C LFE Ls Rs
Sampling rate                  : 48.0 kHz
Frame rate                     : 31.250 FPS (1536 SPF)
Bit depth                      : 32 bits
Compression mode               : Lossy
Stream size                    : 769 MiB (13%)
Language                       : English
Service kind                   : Complete Main

截图




BT种子下载
梦幻天堂·龙网(www.LWgod.org).断网假期.断讯.torrent (29.53 KB, 下载次数: 3241)

0

主题

80

帖子

155

积分

龙之子

Rank: 8Rank: 8Rank: 8Rank: 8

积分
155
发表于 2023-12-27 17:10:17 | 显示全部楼层

感谢航子分享!

0

主题

408

帖子

3387

积分

赤血神龙

Rank: 20Rank: 20Rank: 20Rank: 20

积分
3387
发表于 2023-12-27 17:22:05 | 显示全部楼层
楼主辛苦,多谢分享。

0

主题

274

帖子

716

积分

龙的传人

Rank: 13Rank: 13Rank: 13

积分
716
发表于 2023-12-27 17:30:36 | 显示全部楼层
哈哈哈~~終於讓我找到了@@
一直在找的說!!
感謝樓主的分享囉!!

1

主题

1449

帖子

4388

积分

赤血神龙

Rank: 20Rank: 20Rank: 20Rank: 20

积分
4388
QQ
发表于 2023-12-27 18:08:08 | 显示全部楼层
tks for share..............

1

主题

8819

帖子

1万

积分

神界龙王

Rank: 30Rank: 30Rank: 30Rank: 30

积分
13018
发表于 2023-12-27 18:23:54 | 显示全部楼层
楼主辛苦,多谢分享。

0

主题

8388

帖子

1万

积分

神界龙王

Rank: 30Rank: 30Rank: 30Rank: 30

积分
12315
发表于 2023-12-27 19:22:19 | 显示全部楼层

0

主题

67

帖子

307

积分

龙少爷

Rank: 10Rank: 10

积分
307
发表于 2023-12-27 20:20:17 | 显示全部楼层
感谢航子分享!

19

主题

6万

帖子

7万

积分

天地独尊龙王

梦幻天使

Rank: 33Rank: 33Rank: 33Rank: 33Rank: 33

积分
76328
发表于 2023-12-27 20:26:40 | 显示全部楼层
非常感谢航子分享精彩影片!

0

主题

263

帖子

2834

积分

赤血神龙

Rank: 20Rank: 20Rank: 20Rank: 20

积分
2834
发表于 2023-12-27 20:33:06 | 显示全部楼层
感谢航子,辛苦发片!

0

主题

318

帖子

845

积分

龙的传人

Rank: 13Rank: 13Rank: 13

积分
845
发表于 2023-12-27 20:35:33 | 显示全部楼层
感謝樓主的分享囉!!

1

主题

733

帖子

2498

积分

赤血神龙

Rank: 20Rank: 20Rank: 20Rank: 20

积分
2498
QQ
发表于 2023-12-27 20:55:13 | 显示全部楼层
这电影拍的真不咋地

2

主题

2万

帖子

2万

积分

神界龙王

Rank: 30Rank: 30Rank: 30Rank: 30

积分
29201
发表于 2023-12-27 21:21:18 | 显示全部楼层
多谢分享
戏剧人生

0

主题

902

帖子

1331

积分

神龙

Rank: 15Rank: 15Rank: 15

积分
1331
发表于 2023-12-27 22:02:50 | 显示全部楼层
谢谢航子分享精彩的影片!

1

主题

1万

帖子

2万

积分

神界龙王

Rank: 30Rank: 30Rank: 30Rank: 30

积分
21885

龙网爱心勋章

发表于 2023-12-27 22:05:54 | 显示全部楼层
感谢航子分享
笑看红尘
您需要登录后才可以回帖 登录 | 立即注册

本版积分规则

小黑屋|梦幻天堂·龙网

GMT+8, 2024-4-23 00:50 , Processed in 0.202534 second(s), 27 queries , Gzip On.

Powered by Discuz! X3.2

© 2001-2013 Comsenz Inc.

快速回复 返回顶部 返回列表