梦幻天堂·龙网

 找回密码
 立即注册
查看: 15122|回复: 106

[最新电影龙网转发] 【龙网转发】【于和伟郭麒麟2023喜剧剧情】【二手杰作】【WebDL-2160p.MKV】【国语】

  [复制链接]

2841

主题

3万

帖子

7万

积分

九鼎龙王·坛主

偶系漂漂滴龙民

Rank: 46Rank: 46Rank: 46Rank: 46Rank: 46Rank: 46

积分
75886

航子大神勋章

发表于 2023-12-28 15:40:02 | 显示全部楼层 |阅读模式
海报





译  名 二手杰作/中国版世界上最伟大的父亲
片  名 World's Greatest Dad
年  代 2023
国  家 中国
类  别 剧情/喜剧
语  言 汉语普通话
字  幕 中文硬字幕
评  分 6.7/10 from 40,895 users
链  接 https://movie.douban.com/subject/35242824
文件大小 2.83 GB
片  长 114 Min
导  演 王子昭 Zizhao Wang
主  演 于和伟 Hewei Yu
     郭麒麟 Kevin Guo
     倪虹洁 Hongjie Ni
     许恩怡 Natalie Hsu
     张子贤 Zixian Zhang
     冯雷 Lei Feng
     吕行 Xing Lu
     刘美含 Meihan Liu
     丁文博 Wenbo Ding
     周放 Fang Zhou
     安冬 Dong An

简介

  这是一个关于“儿子‘死’了,爸爸‘红’了”的荒诞故事。儿子坠楼“自杀”,父亲替儿子写了一封才华横溢的代笔遗书,竟然一夜成名……

  马寅波(于和伟 饰)是位高中语文老师,人到中年,哪哪不行。儿子马墨(郭麒麟 饰)坠楼“自杀”,马寅波为了面子替儿子写了一封遗书,竟然让儿子一夜爆红,而他也假借儿子的名义,实现了自己逐梦文学圈的愿望,出书、炒作、颁奖,红得不亦乐乎。但儿子的突然醒来,让整件事情的发展变得越发离谱……

Video
Format                         : HEVC
Format/Info                    : High Efficiency Video Coding
Format profile                 : Main@L5@Main
Codec ID                       : V_MPEGH/ISO/HEVC
Duration                       : 1 h 54 min
Bit rate                       : 3 296 kb/s
Width                          : 3 840 pixels
Height                         : 1 608 pixels
Display aspect ratio           : 2.40:1
Frame rate mode                : Constant
Frame rate                     : 24.000 FPS
Color space                    : YUV
Chroma subsampling             : 4:2:0
Bit depth                      : 8 bits
Bits/(Pixel*Frame)             : 0.022
Stream size                    : 2.63 GiB (93%)

Audio
Format                         : E-AC-3
Format/Info                    : Enhanced AC-3
Commercial name                : Dolby Digital Plus
Codec ID                       : A_EAC3
Duration                       : 1 h 54 min
Bit rate mode                  : Constant
Bit rate                       : 256 kb/s
Channel(s)                     : 6 channels
Channel layout                 : L R C LFE Ls Rs
Sampling rate                  : 48.0 kHz
Frame rate                     : 31.250 FPS (1536 SPF)
Compression mode               : Lossy
Stream size                    : 209 MiB (7%)
Service kind                   : Complete Main

截图




BT种子下载
梦幻天堂·龙网(www.LWgod.org).二手杰作.中国版世界上最伟大的父亲.torrent (29.71 KB, 下载次数: 6949)

0

主题

80

帖子

155

积分

龙之子

Rank: 8Rank: 8Rank: 8Rank: 8

积分
155
发表于 2023-12-28 16:20:57 | 显示全部楼层

感谢航子分享!

0

主题

408

帖子

3387

积分

赤血神龙

Rank: 20Rank: 20Rank: 20Rank: 20

积分
3387
发表于 2023-12-28 17:27:16 | 显示全部楼层
楼主辛苦,多谢分享。

0

主题

274

帖子

716

积分

龙的传人

Rank: 13Rank: 13Rank: 13

积分
716
发表于 2023-12-28 17:28:59 | 显示全部楼层
哈哈哈~~終於讓我找到了@@
一直在找的說!!
感謝樓主的分享囉!!

1

主题

733

帖子

2498

积分

赤血神龙

Rank: 20Rank: 20Rank: 20Rank: 20

积分
2498
QQ
发表于 2023-12-28 17:29:14 | 显示全部楼层
郭麒麟得看

0

主题

263

帖子

2834

积分

赤血神龙

Rank: 20Rank: 20Rank: 20Rank: 20

积分
2834
发表于 2023-12-28 17:45:24 | 显示全部楼层
感谢航子,辛苦发片!

1

主题

1449

帖子

4388

积分

赤血神龙

Rank: 20Rank: 20Rank: 20Rank: 20

积分
4388
QQ
发表于 2023-12-28 18:42:08 | 显示全部楼层
tks for share...............

0

主题

2962

帖子

4222

积分

赤血神龙

Rank: 20Rank: 20Rank: 20Rank: 20

积分
4222
发表于 2023-12-28 19:17:21 | 显示全部楼层
感谢航子分享!

19

主题

6万

帖子

7万

积分

天地独尊龙王

梦幻天使

Rank: 33Rank: 33Rank: 33Rank: 33Rank: 33

积分
76328
发表于 2023-12-28 20:10:45 | 显示全部楼层
非常感谢航子分享精彩影片!

0

主题

1万

帖子

1万

积分

神界龙王

Rank: 30Rank: 30Rank: 30Rank: 30

积分
16352
QQ
发表于 2023-12-28 20:22:11 | 显示全部楼层
感谢航子分享
一切终会过去

0

主题

9433

帖子

9900

积分

海龙王

Rank: 25Rank: 25Rank: 25Rank: 25Rank: 25

积分
9900
发表于 2023-12-28 23:55:51 | 显示全部楼层
国产喜剧,于和伟主演作品,值得欣赏。感谢航子分享!

0

主题

342

帖子

1335

积分

神龙

Rank: 15Rank: 15Rank: 15

积分
1335
发表于 2023-12-29 00:02:59 | 显示全部楼层
楼主辛苦 多谢分享

0

主题

1069

帖子

4231

积分

赤血神龙

Rank: 20Rank: 20Rank: 20Rank: 20

积分
4231
发表于 2023-12-29 07:52:45 | 显示全部楼层
感謝航子的分享.

9

主题

7128

帖子

1万

积分

神界龙王

Rank: 30Rank: 30Rank: 30Rank: 30

积分
10827
发表于 2023-12-29 08:05:15 | 显示全部楼层
感谢航子分享

1

主题

206

帖子

383

积分

龙少爷

Rank: 10Rank: 10

积分
383
发表于 2023-12-29 08:13:27 | 显示全部楼层

感谢航子分享
您需要登录后才可以回帖 登录 | 立即注册

本版积分规则

小黑屋|梦幻天堂·龙网

GMT+8, 2024-4-22 23:56 , Processed in 0.328558 second(s), 29 queries , Gzip On.

Powered by Discuz! X3.2

© 2001-2013 Comsenz Inc.

快速回复 返回顶部 返回列表