梦幻天堂·龙网

 找回密码
 立即注册
查看: 18050|回复: 120

[最新电影龙网转发] 【龙网转发】【张译潘斌龙2023新感人剧情】【无价之宝】【WebDL-2160p.MKV】【国语】

  [复制链接]

2841

主题

3万

帖子

7万

积分

九鼎龙王·坛主

偶系漂漂滴龙民

Rank: 46Rank: 46Rank: 46Rank: 46Rank: 46Rank: 46

积分
75886

航子大神勋章

发表于 2023-12-29 20:14:02 | 显示全部楼层 |阅读模式
海报





译  名 无价之宝/五金家族/盗时光/中国版担保
片  名 Be My Family
年  代 2023
国  家 中国
类  别 剧情/喜剧/家庭
语  言 汉语普通话
字  幕 中英硬字幕
评  分 6.5/10 from 34,697 users
链  接 https://movie.douban.com/subject/35448384
文件大小 4.32 GB
片  长 132 Min
导  演 张大鹏 Dapeng Zhang
主  演 张译 Yi Zhang
     潘斌龙 Binlong Pan
     周依然 Yiran Zhou
     程曦 Xi Cheng
     袁晓旭 Xiaoxu Yuan
     黄婧仪 Jingyi Huang
     郝蕾 Lei Hao
     张国强 Guoqiang Zhang
     方青卓 Qingzhuo Fang
     张懿曼 Yiman Zhang
     何廖侣匀 Luyun Heliao

简介

  “石头”石振邦(张译 饰)和杨武(潘斌龙 饰)这对落魄兄弟经营五金店艰难维生,为追讨欠款,他们不得不暂时照看欠债人的孩子芊芊。两人在与芊芊的相处中从最初嫌弃“拖油瓶”竟潜移默化地转变成千方百计“为女儿战斗”,生活粗放的他们内心也变得越来越柔软……

Video
Format                         : HEVC
Format/Info                    : High Efficiency Video Coding
Format profile                 : Main @ L5.1 @ Main
Codec ID                       : V_MPEGH/ISO/HEVC
Duration                       : 2 h 11 min
Bit rate                       : 4 437 kb/s
Width                          : 3 840 pixels
Height                         : 1 608 pixels
Display aspect ratio           : 2.40:1
Frame rate mode                : Constant
Frame rate                     : 60.000 FPS
Color space                    : YUV
Chroma subsampling             : 4:2:0
Bit depth                      : 8 bits
Bits/(Pixel*Frame)             : 0.012
Stream size                    : 4.09 GiB (94%)

Audio
Format                         : E-AC-3
Format/Info                    : Enhanced AC-3
Commercial name                : Dolby Digital Plus
Codec ID                       : A_EAC3
Duration                       : 2 h 11 min
Bit rate mode                  : Constant
Bit rate                       : 256 kb/s
Channel(s)                     : 6 channels
Channel layout                 : L R C LFE Ls Rs
Sampling rate                  : 48.0 kHz
Frame rate                     : 31.250 FPS (1536 SPF)
Compression mode               : Lossy
Stream size                    : 242 MiB (5%)
Service kind                   : Complete Main

截图




BT种子下载
梦幻天堂·龙网(www.LWgod.org).无价之宝.五金家族.中国版担保.torrent (23.04 KB, 下载次数: 4842)

19

主题

6万

帖子

7万

积分

天地独尊龙王

梦幻天使

Rank: 33Rank: 33Rank: 33Rank: 33Rank: 33

积分
76328
发表于 2023-12-29 20:35:41 | 显示全部楼层
非常感谢航子分享精彩影片!

1

主题

1449

帖子

4388

积分

赤血神龙

Rank: 20Rank: 20Rank: 20Rank: 20

积分
4388
QQ
发表于 2023-12-29 20:46:23 | 显示全部楼层
tks for share.............

0

主题

2462

帖子

4109

积分

赤血神龙

Rank: 20Rank: 20Rank: 20Rank: 20

积分
4109
发表于 2023-12-29 20:47:03 | 显示全部楼层
感谢分享 下载收藏了

0

主题

426

帖子

1087

积分

神龙

Rank: 15Rank: 15Rank: 15

积分
1087
发表于 2023-12-29 21:25:56 | 显示全部楼层

非常感谢航子分享精彩影片!

0

主题

408

帖子

3387

积分

赤血神龙

Rank: 20Rank: 20Rank: 20Rank: 20

积分
3387
发表于 2023-12-29 21:55:18 | 显示全部楼层
楼主辛苦,多谢分享。

1

主题

733

帖子

2498

积分

赤血神龙

Rank: 20Rank: 20Rank: 20Rank: 20

积分
2498
QQ
发表于 2023-12-29 21:56:08 | 显示全部楼层

感謝航子分享!

2

主题

2万

帖子

2万

积分

神界龙王

Rank: 30Rank: 30Rank: 30Rank: 30

积分
29201
发表于 2023-12-29 22:04:01 | 显示全部楼层
多谢航子分享
戏剧人生

0

主题

836

帖子

2081

积分

赤血神龙

Rank: 20Rank: 20Rank: 20Rank: 20

积分
2081
发表于 2023-12-29 22:13:24 | 显示全部楼层
感谢分享!辛苦了

0

主题

8388

帖子

1万

积分

神界龙王

Rank: 30Rank: 30Rank: 30Rank: 30

积分
12315
发表于 2023-12-29 22:20:08 | 显示全部楼层

0

主题

2962

帖子

4222

积分

赤血神龙

Rank: 20Rank: 20Rank: 20Rank: 20

积分
4222
发表于 2023-12-29 22:20:40 | 显示全部楼层
感谢航子分享!

0

主题

263

帖子

2834

积分

赤血神龙

Rank: 20Rank: 20Rank: 20Rank: 20

积分
2834
发表于 2023-12-29 22:21:44 | 显示全部楼层
感谢航子,辛苦发片!

0

主题

342

帖子

1335

积分

神龙

Rank: 15Rank: 15Rank: 15

积分
1335
发表于 2023-12-30 00:04:22 | 显示全部楼层
支持一下 感谢分享

0

主题

27

帖子

93

积分

龙之子

Rank: 8Rank: 8Rank: 8Rank: 8

积分
93
发表于 2023-12-30 02:06:09 | 显示全部楼层

多谢航子分享

0

主题

80

帖子

155

积分

龙之子

Rank: 8Rank: 8Rank: 8Rank: 8

积分
155
发表于 2023-12-30 08:53:22 | 显示全部楼层

感谢航子分享!
您需要登录后才可以回帖 登录 | 立即注册

本版积分规则

小黑屋|梦幻天堂·龙网

GMT+8, 2024-4-23 00:23 , Processed in 0.166405 second(s), 27 queries , Gzip On.

Powered by Discuz! X3.2

© 2001-2013 Comsenz Inc.

快速回复 返回顶部 返回列表