梦幻天堂·龙网

 找回密码
 立即注册
查看: 14505|回复: 81

[最新电影龙网转发] 【龙网转发】【中2023最新周冬雨主演剧情犯罪】【热搜】【WebDL-2160p.MKV】【国语】

[复制链接]

2841

主题

3万

帖子

7万

积分

九鼎龙王·坛主

偶系漂漂滴龙民

Rank: 46Rank: 46Rank: 46Rank: 46Rank: 46Rank: 46

积分
75886

航子大神勋章

发表于 2024-1-3 14:49:02 | 显示全部楼层 |阅读模式
海报





译  名 热搜
片  名 Trending Topic
年  代 2023
国  家 中国
类  别 剧情/犯罪
语  言 汉语普通话/粤语
字  幕 中英硬字幕
评  分 6.1/10 from 34,252 users
链  接 https://movie.douban.com/subject/35498648
文件大小 3.48 GB
片  长 121 Min
导  演 忻钰坤 Yukun Xin
主  演 周冬雨 Dongyu Zhou
     宋洋 Yang Song
     袁弘 Hong Yuan
     王皓 Hao Wang
     陶海 Hai Tao
     石蕊 Rui Shi
     王硕 Shuo Wang
     米拉 Mi La
     张煜雯 Yuwen Zhang
     钟晨瑶 Chenyao Zhong
     师悦玲 Yueling Shi

简介

  热搜背后,真相究竟是什么?

  自媒体主编陈妙(周冬雨 饰)参透流量密码,打造爆款文章冲上热搜,却间接助推了当事人“霸凌者”女学生的跳楼。就在此时,陈妙意外发现女学生曾发来的求助信息,并牵扯出一桩性侵案。陈妙的合伙人何言(宋洋 饰),投资方富商岳鹏(袁弘 饰)陆续卷入其中。舆论多次转向,事件背后又隐藏着怎样的利益链条,一场为弱者发声的舆论战打响……

Video
Format                         : HEVC
Format/Info                    : High Efficiency Video Coding
Format profile                 : Main @ L5.1 @ Main
Codec ID                       : V_MPEGH/ISO/HEVC
Duration                       : 2 h 1 min
Bit rate                       : 3 855 kb/s
Width                          : 3 840 pixels
Height                         : 1 608 pixels
Display aspect ratio           : 2.40:1
Frame rate mode                : Constant
Frame rate                     : 60.000 FPS
Color space                    : YUV
Chroma subsampling             : 4:2:0
Bit depth                      : 8 bits
Bits/(Pixel*Frame)             : 0.010
Stream size                    : 3.26 GiB (94%)

Audio
Format                         : E-AC-3
Format/Info                    : Enhanced AC-3
Commercial name                : Dolby Digital Plus
Codec ID                       : A_EAC3
Duration                       : 2 h 1 min
Bit rate mode                  : Constant
Bit rate                       : 256 kb/s
Channel(s)                     : 6 channels
Channel layout                 : L R C LFE Ls Rs
Sampling rate                  : 48.0 kHz
Frame rate                     : 31.250 FPS (1536 SPF)
Compression mode               : Lossy
Stream size                    : 222 MiB (6%)
Service kind                   : Complete Main

截图




BT种子下载
梦幻天堂·龙网(www.LWgod.org).热搜.周冬雨2023新片.torrent (24.57 KB, 下载次数: 3079)

19

主题

6万

帖子

7万

积分

天地独尊龙王

梦幻天使

Rank: 33Rank: 33Rank: 33Rank: 33Rank: 33

积分
76328
发表于 2024-1-3 15:18:16 | 显示全部楼层
非常感谢航子分享精彩影片!

0

主题

263

帖子

2834

积分

赤血神龙

Rank: 20Rank: 20Rank: 20Rank: 20

积分
2834
发表于 2024-1-3 15:31:27 | 显示全部楼层
感谢航子,辛苦发片!

0

主题

408

帖子

3387

积分

赤血神龙

Rank: 20Rank: 20Rank: 20Rank: 20

积分
3387
发表于 2024-1-3 16:25:02 | 显示全部楼层
楼主辛苦,多谢分享。

1

主题

733

帖子

2498

积分

赤血神龙

Rank: 20Rank: 20Rank: 20Rank: 20

积分
2498
QQ
发表于 2024-1-3 16:45:11 | 显示全部楼层
楼主加油!!!

0

主题

95

帖子

689

积分

升龙霸·VIP

Rank: 22Rank: 22Rank: 22Rank: 22

积分
689

龙网VIP·银星

发表于 2024-1-3 16:55:45 | 显示全部楼层
航子辛苦了

0

主题

1339

帖子

2844

积分

赤血神龙

Rank: 20Rank: 20Rank: 20Rank: 20

积分
2844
发表于 2024-1-3 18:22:52 | 显示全部楼层
感谢航子,辛苦发片!

0

主题

8388

帖子

1万

积分

神界龙王

Rank: 30Rank: 30Rank: 30Rank: 30

积分
12315
发表于 2024-1-3 18:23:33 | 显示全部楼层

1

主题

1449

帖子

4388

积分

赤血神龙

Rank: 20Rank: 20Rank: 20Rank: 20

积分
4388
QQ
发表于 2024-1-3 18:38:58 | 显示全部楼层
tks for share...............

0

主题

3820

帖子

4880

积分

赤血神龙

Rank: 20Rank: 20Rank: 20Rank: 20

积分
4880
发表于 2024-1-3 19:00:18 | 显示全部楼层
感谢航子分享精彩影片!

5

主题

58

帖子

1765

积分

神龙

Rank: 15Rank: 15Rank: 15

积分
1765
发表于 2024-1-3 19:21:50 | 显示全部楼层
航姐休假归来,祝2024发财发财!

2

主题

305

帖子

904

积分

龙的传人

Rank: 13Rank: 13Rank: 13

积分
904
发表于 2024-1-3 19:48:02 | 显示全部楼层
感谢航子,辛苦发片{:4_130:}{:4_130:}

0

主题

2962

帖子

4222

积分

赤血神龙

Rank: 20Rank: 20Rank: 20Rank: 20

积分
4222
发表于 2024-1-3 20:42:53 | 显示全部楼层
感谢航子分享!

2

主题

2万

帖子

2万

积分

神界龙王

Rank: 30Rank: 30Rank: 30Rank: 30

积分
29201
发表于 2024-1-3 21:44:46 | 显示全部楼层
多谢航子分享
戏剧人生

0

主题

836

帖子

2081

积分

赤血神龙

Rank: 20Rank: 20Rank: 20Rank: 20

积分
2081
发表于 2024-1-3 21:47:26 | 显示全部楼层
感谢分享!辛苦了!
您需要登录后才可以回帖 登录 | 立即注册

本版积分规则

小黑屋|梦幻天堂·龙网

GMT+8, 2024-4-22 23:32 , Processed in 0.328311 second(s), 29 queries , Gzip On.

Powered by Discuz! X3.2

© 2001-2013 Comsenz Inc.

快速回复 返回顶部 返回列表