梦幻天堂·龙网

 找回密码
 立即注册
查看: 23763|回复: 138

[最新电影龙网转发] 【龙网转发】【张钧甯阮经天2023悬疑犯罪大片】【追缉】【WebDL-1080p.MKV】【中字】

  [复制链接]

2841

主题

3万

帖子

7万

积分

九鼎龙王·坛主

偶系漂漂滴龙民

Rank: 46Rank: 46Rank: 46Rank: 46Rank: 46Rank: 46

积分
75886

航子大神勋章

发表于 2024-1-4 18:34:01 | 显示全部楼层 |阅读模式
海报





译  名 追缉/查无此心/被操纵的罪恶/野鬼
片  名 The Abandoned
年  代 2023
国  家 中国台湾
类  别 悬疑/犯罪/惊悚
语  言 汉语普通话/泰语/闽南语/英语
字  幕 中简/中繁
评  分 6.3/10 from 14,268 users
链  接 https://movie.douban.com/subject/35427293
文件大小 4.07 GB
片  长 105 Min
导  演 曾英庭 Ying-ting Tseng
主  演 张钧甯 Chun-Ning Chang
     阮经天 Ethan Juan
     游安顺 An-shun Yu
     萨吉·阿皮旺 Sajee Apiwong
     陈为民 Wei-min Chen
     项婕如 Chloe Xiang
     薛仕凌 Simon Hsueh
     黄镫辉 Huang Teng-Hui
     傅孟柏 Meng-Po Fu
     吕雪凤 Hsueh-Feng Lu

简介

  痛失爱人的女警吴洁(张钧甯 饰)在自杀前一刻偶遇一起杀人案件,案件中的女性水流尸被挖除心脏、切下无名指,昭示着这些女性被杀害前曾遭受非人虐待,一起针对雅隆女劳工的连环变态凶杀案在吴洁面前缓缓展开。在案件调查过程中,吴洁发现所有的证据都指向受害者的前男友,非法人力中介林佑生(阮经天 饰)。他和死者纠缠错乱的爱恨情仇使他成为了案件最大的嫌疑人……以爱为名的杀人狂徒究竟隐藏了什么真相,高能逆转,结局难料!

Video
Format                         : AVC
Format/Info                    : Advanced Video Codec
Format profile                 : Main@L4
Format settings                : CABAC / 3 Ref Frames
Format settings, CABAC         : Yes
Format settings, Reference fra : 3 frames
Codec ID                       : V_MPEG4/ISO/AVC
Duration                       : 1 h 44 min
Bit rate mode                  : Variable
Bit rate                       : 5 000 kb/s
Maximum bit rate               : 7 500 kb/s
Width                          : 1 920 pixels
Height                         : 1 080 pixels
Display aspect ratio           : 16:9
Frame rate mode                : Constant
Frame rate                     : 24.000 FPS
Color space                    : YUV
Chroma subsampling             : 4:2:0
Bit depth                      : 8 bits
Scan type                      : Progressive
Bits/(Pixel*Frame)             : 0.100
Stream size                    : 3.60 GiB (88%)

Audio
Format                         : E-AC-3
Format/Info                    : Enhanced AC-3
Commercial name                : Dolby Digital Plus
Codec ID                       : A_EAC3
Duration                       : 1 h 44 min
Bit rate mode                  : Constant
Bit rate                       : 640 kb/s
Channel(s)                     : 6 channels
Channel layout                 : L R C LFE Ls Rs
Sampling rate                  : 48.0 kHz
Frame rate                     : 31.250 FPS (1536 SPF)
Compression mode               : Lossy
Stream size                    : 479 MiB (11%)
Service kind                   : Complete Main

截图




BT种子下载
梦幻天堂·龙网(www.LWgod.org).追缉.查无此心.torrent (21.74 KB, 下载次数: 6553)

0

主题

274

帖子

716

积分

龙的传人

Rank: 13Rank: 13Rank: 13

积分
716
发表于 2024-1-4 19:02:45 | 显示全部楼层
哈哈哈~~終於讓我找到了@@
一直在找的說!!
感謝樓主的分享囉!!

0

主题

294

帖子

455

积分

龙少爷

Rank: 10Rank: 10

积分
455
发表于 2024-1-4 19:11:01 | 显示全部楼层
楼主辛苦,多谢分享。

19

主题

6万

帖子

7万

积分

天地独尊龙王

梦幻天使

Rank: 33Rank: 33Rank: 33Rank: 33Rank: 33

积分
76328
发表于 2024-1-4 19:55:57 | 显示全部楼层
非常感谢航子分享精彩影片!

0

主题

263

帖子

2834

积分

赤血神龙

Rank: 20Rank: 20Rank: 20Rank: 20

积分
2834
发表于 2024-1-4 20:00:43 | 显示全部楼层
感谢航子,辛苦发片!

0

主题

45

帖子

90

积分

龙之子

Rank: 8Rank: 8Rank: 8Rank: 8

积分
90
发表于 2024-1-4 20:15:27 | 显示全部楼层
感謝樓主的分享

1

主题

733

帖子

2498

积分

赤血神龙

Rank: 20Rank: 20Rank: 20Rank: 20

积分
2498
QQ
发表于 2024-1-4 20:47:52 | 显示全部楼层
天天有好片啊

0

主题

408

帖子

3387

积分

赤血神龙

Rank: 20Rank: 20Rank: 20Rank: 20

积分
3387
发表于 2024-1-4 20:57:32 | 显示全部楼层
楼主辛苦,多谢分享。

2

主题

2万

帖子

2万

积分

神界龙王

Rank: 30Rank: 30Rank: 30Rank: 30

积分
29201
发表于 2024-1-4 21:20:46 | 显示全部楼层
多谢分享
戏剧人生

1

主题

1万

帖子

2万

积分

神界龙王

Rank: 30Rank: 30Rank: 30Rank: 30

积分
21885

龙网爱心勋章

发表于 2024-1-4 21:42:52 | 显示全部楼层
楼主辛苦,多谢分享。
笑看红尘

467

主题

1万

帖子

2万

积分

神界龙王

Rank: 30Rank: 30Rank: 30Rank: 30

积分
25852

龙网爱心勋章

发表于 2024-1-4 21:48:14 | 显示全部楼层
楼主辛苦,多谢分享。

1

主题

273

帖子

458

积分

龙少爷

Rank: 10Rank: 10

积分
458
发表于 2024-1-4 21:53:22 | 显示全部楼层
谢谢分享,值得期待

1

主题

783

帖子

1043

积分

神龙

Rank: 15Rank: 15Rank: 15

积分
1043
发表于 2024-1-4 22:45:05 | 显示全部楼层
感谢航子,辛苦发片!

1

主题

1449

帖子

4388

积分

赤血神龙

Rank: 20Rank: 20Rank: 20Rank: 20

积分
4388
QQ
发表于 2024-1-4 22:49:20 | 显示全部楼层
tks for share...............

0

主题

9433

帖子

9900

积分

海龙王

Rank: 25Rank: 25Rank: 25Rank: 25Rank: 25

积分
9900
发表于 2024-1-4 23:05:28 | 显示全部楼层
喜欢看他们两个的电影作品,没到影院观看,现在龙网补上,感谢航子分享!
您需要登录后才可以回帖 登录 | 立即注册

本版积分规则

小黑屋|梦幻天堂·龙网

GMT+8, 2024-4-23 00:42 , Processed in 0.203919 second(s), 32 queries , Gzip On.

Powered by Discuz! X3.2

© 2001-2013 Comsenz Inc.

快速回复 返回顶部 返回列表