梦幻天堂·龙网

 找回密码
 立即注册
查看: 23863|回复: 121

[最新电影龙网转发] 【龙网转发】【中2023超高分热门必看】【画江湖之天罡】【WebDL-2160p.MKV】【国语】

  [复制链接]

2841

主题

3万

帖子

7万

积分

九鼎龙王·坛主

偶系漂漂滴龙民

Rank: 46Rank: 46Rank: 46Rank: 46Rank: 46Rank: 46

积分
75886

航子大神勋章

发表于 2024-1-6 15:51:30 | 显示全部楼层 |阅读模式
海报





译  名 画江湖之天罡/画江湖之天罡传
片  名 The Legend
年  代 2023
国  家 中国
类  别 动作/动画/武侠
语  言 汉语普通话
字  幕 中文硬字幕
评  分 8.1/10 from 33,618 users
链  接 https://movie.douban.com/subject/36066128
文件大小 3.90 GB
片  长 101 Min
导  演 周飞龙 Feilong Zhou
     任伟杰 Weijie Ren
主  演 孟宇 Yu Meng
     阎么么 Meme Yan
     王凯 Kai Wang
     郭政建 Zhengjian Guo
     阎萌萌 Mengmeng Yan
     杨默 Mo Yang
     高枫 Feng Gao
     齐斯伽 Sijia Qi
     刘芊含 Qianhan Liu
     马程 Cheng Ma
     王金笛 Jindi Wang

简介

  大周年间,时局动荡,奸臣当道。直属帝王的秘密暗杀组织不良人一夜之间突然群龙无首,不良帅袁天罡留下一纸书信辞官而去。失去人生方向的袁天罡,在好友李淳风留下的锦囊的指引下,来到了长安安乐阁,却不曾想到此地竟是风月之所。而接下来发生的一切,随着寻求自由之人、寻求不死之人、寻求权力之人的逐一登场,为袁天罡的旅途拉开了新的序幕……

Video
Format                         : HEVC
Format/Info                    : High Efficiency Video Coding
Format profile                 : Main@L5@Main
Codec ID                       : V_MPEGH/ISO/HEVC
Duration                       : 1 h 41 min
Bit rate                       : 5 149 kb/s
Width                          : 3 840 pixels
Height                         : 1 598 pixels
Display aspect ratio           : 2.40:1
Frame rate mode                : Constant
Frame rate                     : 25.000 FPS
Color space                    : YUV
Chroma subsampling             : 4:2:0
Bit depth                      : 8 bits
Bits/(Pixel*Frame)             : 0.034
Stream size                    : 3.63 GiB (93%)
Color range                    : Limited
Color primaries                : BT.709
Transfer characteristics       : BT.709
Matrix coefficients            : BT.709

Audio
Format                         : E-AC-3
Format/Info                    : Enhanced AC-3
Commercial name                : Dolby Digital Plus
Codec ID                       : A_EAC3
Duration                       : 1 h 41 min
Bit rate mode                  : Constant
Bit rate                       : 384 kb/s
Channel(s)                     : 6 channels
Channel layout                 : L R C LFE Ls Rs
Sampling rate                  : 48.0 kHz
Frame rate                     : 31.250 FPS (1536 SPF)
Compression mode               : Lossy
Stream size                    : 277 MiB (7%)
Service kind                   : Complete Main

截图




BT种子下载
梦幻天堂·龙网(www.LWgod.org).画江湖之天罡.torrent (27.37 KB, 下载次数: 5123)

0

主题

131

帖子

483

积分

龙少爷

Rank: 10Rank: 10

积分
483
发表于 2024-1-6 16:52:27 | 显示全部楼层

感谢楼主分享!!!!

0

主题

8389

帖子

1万

积分

神界龙王

Rank: 30Rank: 30Rank: 30Rank: 30

积分
12317
发表于 2024-1-6 16:56:19 | 显示全部楼层

0

主题

1万

帖子

1万

积分

神界龙王

Rank: 30Rank: 30Rank: 30Rank: 30

积分
16352
QQ
发表于 2024-1-6 17:26:03 | 显示全部楼层
感谢航子分享
一切终会过去

0

主题

408

帖子

3387

积分

赤血神龙

Rank: 20Rank: 20Rank: 20Rank: 20

积分
3387
发表于 2024-1-6 17:34:20 | 显示全部楼层
楼主辛苦,多谢分享。

0

主题

263

帖子

2834

积分

赤血神龙

Rank: 20Rank: 20Rank: 20Rank: 20

积分
2834
发表于 2024-1-6 17:37:33 | 显示全部楼层
感谢航子,辛苦发片!

19

主题

6万

帖子

7万

积分

天地独尊龙王

梦幻天使

Rank: 33Rank: 33Rank: 33Rank: 33Rank: 33

积分
76328
发表于 2024-1-6 17:37:41 | 显示全部楼层
非常感谢航子分享精彩影片!

4

主题

47

帖子

384

积分

升龙霸·VIP

Rank: 22Rank: 22Rank: 22Rank: 22

积分
384

龙网VIP·银章

发表于 2024-1-6 17:54:46 | 显示全部楼层
好动漫,可惜。下载不下来,没资源

1

主题

181

帖子

1914

积分

神龙

Rank: 15Rank: 15Rank: 15

积分
1914
发表于 2024-1-6 19:00:18 | 显示全部楼层
感谢航子

0

主题

182

帖子

1710

积分

神龙

Rank: 15Rank: 15Rank: 15

积分
1710
发表于 2024-1-6 19:03:07 | 显示全部楼层
感谢楼主分享!!!!

1

主题

452

帖子

1392

积分

神龙

Rank: 15Rank: 15Rank: 15

积分
1392
发表于 2024-1-6 19:03:25 | 显示全部楼层
感谢楼主分享!!!!
ABR告诉我:没有行动的远见是白日梦,没有远见的行动是恶梦。

1

主题

733

帖子

2498

积分

赤血神龙

Rank: 20Rank: 20Rank: 20Rank: 20

积分
2498
QQ
发表于 2024-1-6 19:17:01 | 显示全部楼层
楼主辛苦,感谢楼主分享

1

主题

40

帖子

108

积分

龙之子

Rank: 8Rank: 8Rank: 8Rank: 8

积分
108
发表于 2024-1-6 19:26:12 | 显示全部楼层
感谢航子分享
貌似下载不动

0

主题

95

帖子

689

积分

升龙霸·VIP

Rank: 22Rank: 22Rank: 22Rank: 22

积分
689

龙网VIP·银星

发表于 2024-1-6 20:44:22 | 显示全部楼层
航子辛苦了

0

主题

95

帖子

689

积分

升龙霸·VIP

Rank: 22Rank: 22Rank: 22Rank: 22

积分
689

龙网VIP·银星

发表于 2024-1-6 20:44:41 | 显示全部楼层
航子辛苦了
您需要登录后才可以回帖 登录 | 立即注册

本版积分规则

小黑屋|梦幻天堂·龙网

GMT+8, 2024-4-23 00:59 , Processed in 0.221280 second(s), 27 queries , Gzip On.

Powered by Discuz! X3.2

© 2001-2013 Comsenz Inc.

快速回复 返回顶部 返回列表