梦幻天堂·龙网

 找回密码
 立即注册
查看: 69995|回复: 148

[最新电影龙网转发] 【龙网转发】【英2023最新青春性暴力剧情】【如何做爱】【WebDL-1080p.MKV】【中字】

  [复制链接]

2841

主题

3万

帖子

7万

积分

九鼎龙王·坛主

偶系漂漂滴龙民

Rank: 46Rank: 46Rank: 46Rank: 46Rank: 46Rank: 46

积分
75886

航子大神勋章

发表于 2024-1-8 17:36:05 | 显示全部楼层 |阅读模式
海报





译  名 如何做爱/第一次
片  名 How to Have Sex
年  代 2023
国  家 英国/希腊
类  别 剧情
语  言 英语
字  幕 中简/中繁/英文
评  分 6.6/10 from 5,865 users
链  接 https://www.imdb.com/title/tt22890246
文件大小 5.89 GB
片  长 91 Min
导  演 莫莉·曼宁·沃尔克 Molly Manning Walker
主  演 米娅·麦肯纳·布鲁斯 Mia McKenna-Bruce
     拉腊·皮克 Lara Peake
     肖恩·托马斯 Shaun Thomas
     塞缪尔·博顿利 Samuel Bottomley
     恩瓦·刘易斯 Enva Lewis
     劳拉·安布勒 Laura Ambler
     黛西·杰利 Daisy Jelley
     艾利德·罗安 Eilidh Loan
     埃利奥特·沃伦 Elliot Warren

简介

  在该片中,导演继续她对性暴力的探索,深入到一个典型的英国成年仪式中:年轻女性在马略卡岛度假,在狂欢中失去她们的贞操。观众会跟随三个好朋友Zara、Em和Sky的旅程,与她们一同面对集体意识和同辈人竞争压力。

Video
Format                         : AVC
Format/Info                    : Advanced Video Codec
Format profile                 : High@L4
Format settings                : CABAC / 4 Ref Frames
Format settings, CABAC         : Yes
Format settings, Reference fra : 4 frames
Codec ID                       : V_MPEG4/ISO/AVC
Duration                       : 1 h 30 min
Bit rate mode                  : Constant
Bit rate                       : 8 938 kb/s
Nominal bit rate               : 10 000 kb/s
Width                          : 1 920 pixels
Height                         : 1 040 pixels
Display aspect ratio           : 1.85:1
Frame rate mode                : Constant
Frame rate                     : 24.000 FPS
Color space                    : YUV
Chroma subsampling             : 4:2:0
Bit depth                      : 8 bits
Scan type                      : Progressive
Bits/(Pixel*Frame)             : 0.187
Stream size                    : 5.68 GiB (96%)
Color range                    : Limited
Color primaries                : BT.709
Transfer characteristics       : BT.709
Matrix coefficients            : BT.709

Audio
Format                         : E-AC-3
Format/Info                    : Enhanced AC-3
Commercial name                : Dolby Digital Plus
Codec ID                       : A_EAC3
Duration                       : 1 h 30 min
Bit rate mode                  : Constant
Bit rate                       : 320 kb/s
Channel(s)                     : 6 channels
Channel layout                 : L R C LFE Ls Rs
Sampling rate                  : 48.0 kHz
Frame rate                     : 31.250 FPS (1536 SPF)
Compression mode               : Lossy
Delay relative to video        : 20 ms
Stream size                    : 208 MiB (3%)
Language                       : English
Service kind                   : Complete Main

截图




BT种子下载
梦幻天堂·龙网(www.LWgod.org).如何做爱.第一次.torrent (30.82 KB, 下载次数: 15022)

19

主题

6万

帖子

7万

积分

天地独尊龙王

梦幻天使

Rank: 33Rank: 33Rank: 33Rank: 33Rank: 33

积分
76328
发表于 2024-1-8 18:16:36 | 显示全部楼层
非常感谢航子分享精彩影片!

0

主题

2962

帖子

4222

积分

赤血神龙

Rank: 20Rank: 20Rank: 20Rank: 20

积分
4222
发表于 2024-1-8 18:27:20 | 显示全部楼层
感谢航子分享!

1

主题

1449

帖子

4388

积分

赤血神龙

Rank: 20Rank: 20Rank: 20Rank: 20

积分
4388
QQ
发表于 2024-1-8 18:30:47 | 显示全部楼层
tks for share............

1

主题

237

帖子

1810

积分

神龙

Rank: 15Rank: 15Rank: 15

积分
1810
发表于 2024-1-8 18:45:01 | 显示全部楼层
感谢航子分享!

0

主题

8081

帖子

1万

积分

神界龙王

Rank: 30Rank: 30Rank: 30Rank: 30

积分
10655
发表于 2024-1-8 19:34:04 | 显示全部楼层
感谢楼主分享

0

主题

45

帖子

90

积分

龙之子

Rank: 8Rank: 8Rank: 8Rank: 8

积分
90
发表于 2024-1-8 19:45:05 | 显示全部楼层
感谢航子分享!

1

主题

452

帖子

1392

积分

神龙

Rank: 15Rank: 15Rank: 15

积分
1392
发表于 2024-1-8 19:48:15 | 显示全部楼层

感谢楼主分享.....
ABR告诉我:没有行动的远见是白日梦,没有远见的行动是恶梦。

0

主题

583

帖子

848

积分

龙的传人

Rank: 13Rank: 13Rank: 13

积分
848
发表于 2024-1-8 19:50:37 | 显示全部楼层
这是教育片吗,如此生猛的题目。

1

主题

733

帖子

2498

积分

赤血神龙

Rank: 20Rank: 20Rank: 20Rank: 20

积分
2498
QQ
发表于 2024-1-8 20:07:59 | 显示全部楼层
感谢航子分享

0

主题

408

帖子

3387

积分

赤血神龙

Rank: 20Rank: 20Rank: 20Rank: 20

积分
3387
发表于 2024-1-8 20:31:28 | 显示全部楼层
楼主辛苦,多谢分享。

0

主题

95

帖子

689

积分

升龙霸·VIP

Rank: 22Rank: 22Rank: 22Rank: 22

积分
689

龙网VIP·银星

发表于 2024-1-8 20:52:54 | 显示全部楼层
航子辛苦了

0

主题

274

帖子

716

积分

龙的传人

Rank: 13Rank: 13Rank: 13

积分
716
发表于 2024-1-8 20:54:43 | 显示全部楼层
哈哈哈~~終於讓我找到了@@
一直在找的說!!
感謝樓主的分享囉!!

0

主题

153

帖子

316

积分

龙少爷

Rank: 10Rank: 10

积分
316
发表于 2024-1-8 21:03:49 | 显示全部楼层
感谢楼主分享

0

主题

263

帖子

2834

积分

赤血神龙

Rank: 20Rank: 20Rank: 20Rank: 20

积分
2834
发表于 2024-1-8 21:10:02 | 显示全部楼层
感谢航子,辛苦发片!
您需要登录后才可以回帖 登录 | 立即注册

本版积分规则

小黑屋|梦幻天堂·龙网

GMT+8, 2024-4-22 23:59 , Processed in 0.212995 second(s), 27 queries , Gzip On.

Powered by Discuz! X3.2

© 2001-2013 Comsenz Inc.

快速回复 返回顶部 返回列表