梦幻天堂·龙网

 找回密码
 立即注册
查看: 31498|回复: 140

[最新电影龙网转发] 【龙网转发】【中国2023章宇最新悬疑犯罪】【沉默笔录】【WebDL-2160p.MKV】【国语】

  [复制链接]

2841

主题

3万

帖子

7万

积分

九鼎龙王·坛主

偶系漂漂滴龙民

Rank: 46Rank: 46Rank: 46Rank: 46Rank: 46Rank: 46

积分
75886

航子大神勋章

发表于 2024-1-9 16:53:41 | 显示全部楼层 |阅读模式
海报





译  名 沉默笔录/野犬笔录
片  名 Record Without Words
年  代 2023
国  家 中国
类  别 剧情/悬疑/犯罪
语  言 汉语普通话/贵州方言
字  幕 中英硬字幕
评  分 6.8/10 from 6,351 users
链  接 https://movie.douban.com/subject/30396283
文件大小 2.94 GB
片  长 91 Min
导  演 郝飞环 Feihuan Hao
主  演 章宇 Yu Zhang
     马吟吟 Yinyin Ma
     孙敏 Min Sun
     楚布花羯 ChoBu HuaJe
     谭天 Tian Tan
     钟波 Bo Zhong
     董凡 Fan Dong

简介

  平西镇位于西南某地,90年代乡镇治安由联防队维护,联防队长李立忠(章宇 饰)的父亲意外死亡,与此同时镇里发生诡异的连环杀狗案,李立忠带领队员通过蹩脚的探案手法进行调查,通过一系列荒诞行动,李立忠发现杀狗案竟与父亲的死亡有千丝万缕的关系。在那个野蛮生长的时代下,面对真相的李立忠只能以沉默作答。

Video
Format                         : HEVC
Format/Info                    : High Efficiency Video Coding
Format profile                 : Main @ L5.1 @ Main
Codec ID                       : V_MPEGH/ISO/HEVC
Duration                       : 1 h 31 min
Bit rate                       : 4 350 kb/s
Width                          : 3 840 pixels
Height                         : 1 712 pixels
Display aspect ratio           : 2.25:1
Frame rate mode                : Constant
Frame rate                     : 60.000 FPS
Color space                    : YUV
Chroma subsampling             : 4:2:0
Bit depth                      : 8 bits
Bits/(Pixel*Frame)             : 0.011
Stream size                    : 2.78 GiB (94%)

Audio
Format                         : E-AC-3
Format/Info                    : Enhanced AC-3
Commercial name                : Dolby Digital Plus
Codec ID                       : A_EAC3
Duration                       : 1 h 31 min
Bit rate mode                  : Constant
Bit rate                       : 256 kb/s
Channel(s)                     : 6 channels
Channel layout                 : L R C LFE Ls Rs
Sampling rate                  : 48.0 kHz
Frame rate                     : 31.250 FPS (1536 SPF)
Compression mode               : Lossy
Stream size                    : 168 MiB (6%)
Service kind                   : Complete Main

截图




BT种子下载
梦幻天堂·龙网(www.LWgod.org).沉默笔录.野犬笔录.torrent (30.84 KB, 下载次数: 9052)

评分

1

查看全部评分

0

主题

263

帖子

2834

积分

赤血神龙

Rank: 20Rank: 20Rank: 20Rank: 20

积分
2834
发表于 2024-1-9 17:16:04 | 显示全部楼层
感谢航子,辛苦发片!

1

主题

341

帖子

932

积分

龙的传人

Rank: 13Rank: 13Rank: 13

积分
932
发表于 2024-1-9 17:16:44 | 显示全部楼层
感谢航子

0

主题

408

帖子

3387

积分

赤血神龙

Rank: 20Rank: 20Rank: 20Rank: 20

积分
3387
发表于 2024-1-9 17:21:22 | 显示全部楼层
楼主辛苦,多谢分享。

1

主题

1449

帖子

4388

积分

赤血神龙

Rank: 20Rank: 20Rank: 20Rank: 20

积分
4388
QQ
发表于 2024-1-9 17:32:59 | 显示全部楼层
tks for share.............

点评

666666666666  发表于 2024-1-18 20:42

19

主题

6万

帖子

7万

积分

天地独尊龙王

梦幻天使

Rank: 33Rank: 33Rank: 33Rank: 33Rank: 33

积分
76328
发表于 2024-1-9 18:11:40 | 显示全部楼层
非常感谢航子分享精彩影片!

0

主题

8388

帖子

1万

积分

神界龙王

Rank: 30Rank: 30Rank: 30Rank: 30

积分
12315
发表于 2024-1-9 18:47:19 | 显示全部楼层

0

主题

2962

帖子

4222

积分

赤血神龙

Rank: 20Rank: 20Rank: 20Rank: 20

积分
4222
发表于 2024-1-9 18:52:24 | 显示全部楼层
感谢航子分享!

1

主题

273

帖子

458

积分

龙少爷

Rank: 10Rank: 10

积分
458
发表于 2024-1-9 19:37:07 | 显示全部楼层
谢谢分享谢谢分享

1

主题

733

帖子

2498

积分

赤血神龙

Rank: 20Rank: 20Rank: 20Rank: 20

积分
2498
QQ
发表于 2024-1-9 19:37:58 | 显示全部楼层

感谢航子分享

0

主题

206

帖子

940

积分

升龙霸·VIP

Rank: 22Rank: 22Rank: 22Rank: 22

积分
940

龙网VIP·银牌

发表于 2024-1-9 20:03:28 | 显示全部楼层
感谢航总分享

0

主题

836

帖子

2081

积分

赤血神龙

Rank: 20Rank: 20Rank: 20Rank: 20

积分
2081
发表于 2024-1-9 20:43:28 | 显示全部楼层
感谢分享!辛苦了!

2

主题

2万

帖子

2万

积分

神界龙王

Rank: 30Rank: 30Rank: 30Rank: 30

积分
29201
发表于 2024-1-9 20:48:56 | 显示全部楼层
多谢航子分享
戏剧人生

0

主题

95

帖子

689

积分

升龙霸·VIP

Rank: 22Rank: 22Rank: 22Rank: 22

积分
689

龙网VIP·银星

发表于 2024-1-9 22:05:47 | 显示全部楼层
航子辛苦了

1

主题

1万

帖子

2万

积分

神界龙王

Rank: 30Rank: 30Rank: 30Rank: 30

积分
21885

龙网爱心勋章

发表于 2024-1-9 22:06:23 | 显示全部楼层
拥有强烈的安全感
笑看红尘
您需要登录后才可以回帖 登录 | 立即注册

本版积分规则

小黑屋|梦幻天堂·龙网

GMT+8, 2024-4-22 23:37 , Processed in 0.321283 second(s), 30 queries , Gzip On.

Powered by Discuz! X3.2

© 2001-2013 Comsenz Inc.

快速回复 返回顶部 返回列表