梦幻天堂·龙网

 找回密码
 立即注册
查看: 4354|回复: 50

[最新电影龙网转发] 【龙网转发】【中国2023万众期待超票房必看】【三大队】【WebDL-2160p.MKV】【国语】

[复制链接]

2841

主题

3万

帖子

7万

积分

九鼎龙王·坛主

偶系漂漂滴龙民

Rank: 46Rank: 46Rank: 46Rank: 46Rank: 46Rank: 46

积分
75886

航子大神勋章

发表于 2024-3-30 16:28:43 | 显示全部楼层 |阅读模式
海报





译  名 三大队/请转告局长,三大队任务完成了
片  名 Endless Journey
年  代 2023
国  家 中国
类  别 剧情/犯罪
语  言 汉语普通话
字  幕 中英硬字幕
评  分 7.6/10 from 422,159 users
链  接 https://movie.douban.com/subject/35208463
文件大小 3.29 GB
片  长 132 Min
导  演 戴墨 Mo Dai
主  演 张译 Yi Zhang
     李晨 Chen Li
     魏晨 Vision Wei
     曹炳琨 Bingkun Cao
     王骁 Xiao Wang
     张子贤 Zixian Zhang
     杨新鸣 Xinming Yang
     陈创 Chuang Chen
     黄璐 Lu Huang
     艾丽娅 Liya Ai
     高叶 Ye Gao

简介

  刑侦大队队长程兵(张译 饰)带领的三大队在办理一起恶性案件的过程中导致嫌犯之一意外死亡,被判入狱。出狱后依然坚持以普通人身份追踪在逃嫌犯。

  影片根据真实事件改编,原载于“网易人间工作室”作者深蓝的《请转告局长,三大队任务完成了》。

Video
Format                         : HEVC
Format/Info                    : High Efficiency Video Coding
Format profile                 : Main@L5@Main
Codec ID                       : V_MPEGH/ISO/HEVC
Duration                       : 2 h 12 min
Bit rate                       : 3 287 kb/s
Width                          : 3 840 pixels
Height                         : 2 080 pixels
Display aspect ratio           : 1.85:1
Frame rate mode                : Constant
Frame rate                     : 25.000 FPS
Color space                    : YUV
Chroma subsampling             : 4:2:0
Bit depth                      : 8 bits
Bits/(Pixel*Frame)             : 0.016
Stream size                    : 3.05 GiB (93%)

Audio
Format                         : E-AC-3
Format/Info                    : Enhanced AC-3
Commercial name                : Dolby Digital Plus
Codec ID                       : A_EAC3
Duration                       : 2 h 12 min
Bit rate mode                  : Constant
Bit rate                       : 256 kb/s
Channel(s)                     : 6 channels
Channel layout                 : L R C LFE Ls Rs
Sampling rate                  : 48.0 kHz
Frame rate                     : 31.250 FPS (1536 SPF)
Compression mode               : Lossy
Stream size                    : 244 MiB (7%)
Service kind                   : Complete Main

截图




BT种子下载
梦幻天堂·龙网(www.LWgod.org).三大队.电影版.torrent (23.16 KB, 下载次数: 1526)

0

主题

8388

帖子

1万

积分

神界龙王

Rank: 30Rank: 30Rank: 30Rank: 30

积分
12315
发表于 2024-3-30 16:59:49 | 显示全部楼层

0

主题

408

帖子

3387

积分

赤血神龙

Rank: 20Rank: 20Rank: 20Rank: 20

积分
3387
发表于 2024-3-30 17:36:48 | 显示全部楼层
楼主辛苦,多谢分享。

0

主题

263

帖子

2834

积分

赤血神龙

Rank: 20Rank: 20Rank: 20Rank: 20

积分
2834
发表于 2024-3-30 17:54:51 | 显示全部楼层
感谢航子,辛苦发片!

19

主题

6万

帖子

7万

积分

天地独尊龙王

梦幻天使

Rank: 33Rank: 33Rank: 33Rank: 33Rank: 33

积分
76328
发表于 2024-3-30 19:34:13 | 显示全部楼层
非常感谢航子无私分享精彩影片!

1

主题

733

帖子

2498

积分

赤血神龙

Rank: 20Rank: 20Rank: 20Rank: 20

积分
2498
QQ
发表于 2024-3-30 20:11:27 | 显示全部楼层

感谢航子,辛苦发片

2

主题

2万

帖子

2万

积分

神界龙王

Rank: 30Rank: 30Rank: 30Rank: 30

积分
29201
发表于 2024-3-30 20:17:17 | 显示全部楼层
多谢航子分享
戏剧人生

0

主题

426

帖子

1087

积分

神龙

Rank: 15Rank: 15Rank: 15

积分
1087
发表于 2024-3-30 21:03:46 | 显示全部楼层
楼主辛苦,多谢分享。

0

主题

836

帖子

2081

积分

赤血神龙

Rank: 20Rank: 20Rank: 20Rank: 20

积分
2081
发表于 2024-3-30 21:18:40 | 显示全部楼层
感谢分享!航子美女辛苦了!

0

主题

81

帖子

5203

积分

海龙王

Rank: 25Rank: 25Rank: 25Rank: 25Rank: 25

积分
5203
发表于 2024-3-30 21:47:55 | 显示全部楼层
感谢航子分享~

0

主题

9432

帖子

9899

积分

海龙王

Rank: 25Rank: 25Rank: 25Rank: 25Rank: 25

积分
9899
发表于 2024-3-30 22:01:15 | 显示全部楼层
第一时间到影院观看了,国产警匪动作枪战优秀影片,值得欣赏。感谢航子分享!

0

主题

120

帖子

737

积分

龙的传人

Rank: 13Rank: 13Rank: 13

积分
737
发表于 2024-3-31 00:04:44 | 显示全部楼层
感谢航子分享

1

主题

1万

帖子

2万

积分

神界龙王

Rank: 30Rank: 30Rank: 30Rank: 30

积分
21885

龙网爱心勋章

发表于 2024-3-31 00:38:14 | 显示全部楼层
终于开始更新了
笑看红尘

0

主题

2962

帖子

4222

积分

赤血神龙

Rank: 20Rank: 20Rank: 20Rank: 20

积分
4222
发表于 2024-3-31 00:53:50 | 显示全部楼层
感谢航子分享!

0

主题

95

帖子

689

积分

升龙霸·VIP

Rank: 22Rank: 22Rank: 22Rank: 22

积分
689

龙网VIP·银星

发表于 2024-3-31 01:12:22 | 显示全部楼层
航子辛苦了
您需要登录后才可以回帖 登录 | 立即注册

本版积分规则

小黑屋|梦幻天堂·龙网

GMT+8, 2024-4-22 23:12 , Processed in 0.220325 second(s), 29 queries , Gzip On.

Powered by Discuz! X3.2

© 2001-2013 Comsenz Inc.

快速回复 返回顶部 返回列表