梦幻天堂·龙网

 找回密码
 立即注册
查看: 4021|回复: 53

[最新电影龙网转发] 【龙网转发】【中2023超高分票房爆笑】【年会不能停!】【WebDL-2160p.MKV】【国语】

[复制链接]

2841

主题

3万

帖子

7万

积分

九鼎龙王·坛主

偶系漂漂滴龙民

Rank: 46Rank: 46Rank: 46Rank: 46Rank: 46Rank: 46

积分
75886

航子大神勋章

发表于 2024-3-31 16:01:19 | 显示全部楼层 |阅读模式
海报





译  名 年会不能停!
片  名 Johnny Keep Walking!
年  代 2023
国  家 中国
类  别 剧情/喜剧
语  言 汉语普通话
字  幕 中文硬字幕
评  分 8.1/10 from 866,130 users
链  接 https://movie.douban.com/subject/35725869
文件大小 3.42 GB
片  长 117 Min
导  演 董润年 Runnian Dong
主  演 大鹏 Chengpeng Dong
     白客 White. K
     庄达菲 Dafei Zhuang
     王迅 Xun Wang
     孙艺洲 Yizhou Sun
     李乃文 Naiwen Li
     欧阳奋强 Fenqiang Ouyang
     童漠男 Monan Tong
     大木 Damu
     晃晃 Huanghuang
     衣云鹤 Yunhe Yi

简介

  在一个配件厂兢兢业业许多年的钳工胡建林(大鹏 饰),偶然接到一纸调令,命他马上到集团总公司赴任。淳朴老实的建林还以为作为年年先进的他成为了集团树立奖掖优秀员工的典型,殊不知这却是一场阴差阳错走后门拖关系的狸猫换太子。人事经理马杰(白客 饰)虽然很快发现了这场乌龙,但为了避免遭到处罚,只能将错就错,想方设法保住这位不速之客。而在这一过程中,胡建林也因扑朔迷离的身份受到集团上下的种种揣测,他的层级也意外地一次又一次提升。与此同时,集团正处于大裁员的风雨飘摇时刻,而展现公司面貌的年会召开在即。

  处在漩涡中心的胡建林,终于发现了一系列诡异事件背后的玄机……

Video
Format                         : HEVC
Format/Info                    : High Efficiency Video Coding
Format profile                 : Main@L5@Main
Codec ID                       : V_MPEGH/ISO/HEVC
Duration                       : 1 h 57 min
Bit rate                       : 3 934 kb/s
Width                          : 3 840 pixels
Height                         : 1 608 pixels
Display aspect ratio           : 2.40:1
Frame rate mode                : Constant
Frame rate                     : 24.000 FPS
Color space                    : YUV
Chroma subsampling             : 4:2:0
Bit depth                      : 8 bits
Bits/(Pixel*Frame)             : 0.027
Stream size                    : 3.22 GiB (94%)

Audio
Format                         : E-AC-3
Format/Info                    : Enhanced AC-3
Commercial name                : Dolby Digital Plus
Codec ID                       : A_EAC3
Duration                       : 1 h 57 min
Bit rate mode                  : Constant
Bit rate                       : 256 kb/s
Channel(s)                     : 6 channels
Channel layout                 : L R C LFE Ls Rs
Sampling rate                  : 48.0 kHz
Frame rate                     : 31.250 FPS (1536 SPF)
Compression mode               : Lossy
Stream size                    : 214 MiB (6%)
Service kind                   : Complete Main

截图




BT种子下载
梦幻天堂·龙网(www.LWgod.org).年会不能停!.torrent (24.05 KB, 下载次数: 1487)

0

主题

408

帖子

3387

积分

赤血神龙

Rank: 20Rank: 20Rank: 20Rank: 20

积分
3387
发表于 2024-3-31 16:38:14 | 显示全部楼层
楼主辛苦,多谢分享。

1

主题

341

帖子

932

积分

龙的传人

Rank: 13Rank: 13Rank: 13

积分
932
发表于 2024-3-31 16:57:50 | 显示全部楼层
航子大大又来了。支持

0

主题

6933

帖子

9492

积分

海龙王

Rank: 25Rank: 25Rank: 25Rank: 25Rank: 25

积分
9492
发表于 2024-3-31 17:16:28 | 显示全部楼层
谢谢楼主分享!!

0

主题

4948

帖子

6774

积分

海龙王

Rank: 25Rank: 25Rank: 25Rank: 25Rank: 25

积分
6774
发表于 2024-3-31 17:54:08 | 显示全部楼层

谢谢楼主分享!!

0

主题

81

帖子

5203

积分

海龙王

Rank: 25Rank: 25Rank: 25Rank: 25Rank: 25

积分
5203
发表于 2024-3-31 17:55:32 | 显示全部楼层
感谢航子分享~

0

主题

263

帖子

2834

积分

赤血神龙

Rank: 20Rank: 20Rank: 20Rank: 20

积分
2834
发表于 2024-3-31 18:18:55 | 显示全部楼层
感谢航子,辛苦发片~!

19

主题

6万

帖子

7万

积分

天地独尊龙王

梦幻天使

Rank: 33Rank: 33Rank: 33Rank: 33Rank: 33

积分
76328
发表于 2024-3-31 19:11:26 | 显示全部楼层
非常感谢航子无私分享精彩影片!

1

主题

733

帖子

2498

积分

赤血神龙

Rank: 20Rank: 20Rank: 20Rank: 20

积分
2498
QQ
发表于 2024-3-31 19:41:56 | 显示全部楼层

谢谢楼主分享!!

2

主题

451

帖子

1659

积分

神龙

Rank: 15Rank: 15Rank: 15

积分
1659
发表于 2024-3-31 20:06:20 | 显示全部楼层
航子回来了!!!!!!!

2

主题

2万

帖子

2万

积分

神界龙王

Rank: 30Rank: 30Rank: 30Rank: 30

积分
29201
发表于 2024-3-31 20:21:03 | 显示全部楼层
多谢老大分享{:4_136:}
戏剧人生

0

主题

836

帖子

2081

积分

赤血神龙

Rank: 20Rank: 20Rank: 20Rank: 20

积分
2081
发表于 2024-3-31 21:55:29 | 显示全部楼层
感谢分享!航子美女!辛苦了!

0

主题

2962

帖子

4222

积分

赤血神龙

Rank: 20Rank: 20Rank: 20Rank: 20

积分
4222
发表于 2024-3-31 22:20:59 | 显示全部楼层
感谢航子分享!

0

主题

9428

帖子

9894

积分

海龙王

Rank: 25Rank: 25Rank: 25Rank: 25Rank: 25

积分
9894
发表于 2024-3-31 22:32:28 | 显示全部楼层
是一部非常优秀的国产喜剧电影,网评影评口碑得分高,值得欣赏,感谢航子分享!

0

主题

8388

帖子

1万

积分

神界龙王

Rank: 30Rank: 30Rank: 30Rank: 30

积分
12315
发表于 2024-3-31 22:40:25 | 显示全部楼层
您需要登录后才可以回帖 登录 | 立即注册

本版积分规则

小黑屋|梦幻天堂·龙网

GMT+8, 2024-4-22 23:05 , Processed in 0.200003 second(s), 29 queries , Gzip On.

Powered by Discuz! X3.2

© 2001-2013 Comsenz Inc.

快速回复 返回顶部 返回列表