梦幻天堂·龙网

 找回密码
 立即注册
查看: 4726|回复: 68

[最新电影龙网转发] 【龙网转发】【冯小刚2023新众星贺岁喜剧】【非诚勿扰3】【WebDL-2160p.MKV】【国语】

[复制链接]

2841

主题

3万

帖子

7万

积分

九鼎龙王·坛主

偶系漂漂滴龙民

Rank: 46Rank: 46Rank: 46Rank: 46Rank: 46Rank: 46

积分
75886

航子大神勋章

发表于 2024-4-2 15:12:45 | 显示全部楼层 |阅读模式
海报





译  名 非诚勿扰3/征婚启事
片  名 If You Are the One III
年  代 2023
国  家 中国
类  别 喜剧/爱情/科幻
语  言 汉语普通话
字  幕 中英硬字幕
评  分 5.4/10 from 105,910 users
链  接 https://movie.douban.com/subject/26769592
文件大小 4.00 GB
片  长 119 Min
导  演 冯小刚 Xiaogang Feng
主  演 葛优 You Ge
     舒淇 Qi Shu
     范伟 Wei Fan
     姚晨 Chen Yao
     李诚儒 Chengru Li
     关晓彤 Xiaotong Guan
     虞书欣 Shuxin Yu
     岳云鹏 Yunpeng Yue
     常远 Yuan Chang
     邬逸聪 Yicong Wu
     易小星 Joshua

简介

  2031年,已经步入老年的秦奋(葛优 饰)不再折腾,独自守在他和笑笑(舒淇 饰)小家中,等待着十年前突然离开自己投身环保事业的妻子倦鸟归林。曾经的旧友老范(范伟 饰)抓住人工智能的风口商机,创立了一家仿真人的高科技公司。为了排解生活中的寂寞,秦奋订做了和笑笑一模一样的仿真人。仿真人笑笑对主人高度服从,体贴入微,虽然让秦奋倍感喜悦,可是他终究思念那个让他深深爱恋却又颇感畏惧的真正妻子。就在他再次找到老范的公司,期望为仿真人修改性格的那一天,笑笑意外归来。当她得知一个仿真人正在陪伴着秦奋,她的脑中闪过了一个念头。

  不久之后,两个笑笑接连走入秦奋的家门……

Video
Format                         : HEVC
Format/Info                    : High Efficiency Video Coding
Format profile                 : Main @ L5.1 @ Main
Codec ID                       : V_MPEGH/ISO/HEVC
Duration                       : 1 h 59 min
Bit rate                       : 4 547 kb/s
Width                          : 3 840 pixels
Height                         : 1 608 pixels
Display aspect ratio           : 2.40:1
Frame rate mode                : Variable
Frame rate                     : 59.869 FPS
Original frame rate            : 60.000 FPS
Color space                    : YUV
Chroma subsampling             : 4:2:0
Bit depth                      : 8 bits
Bits/(Pixel*Frame)             : 0.012
Stream size                    : 3.79 GiB (95%)

Audio
Format                         : E-AC-3
Format/Info                    : Enhanced AC-3
Commercial name                : Dolby Digital Plus
Codec ID                       : A_EAC3
Duration                       : 1 h 59 min
Bit rate mode                  : Constant
Bit rate                       : 256 kb/s
Channel(s)                     : 6 channels
Channel layout                 : L R C LFE Ls Rs
Sampling rate                  : 48.0 kHz
Frame rate                     : 31.250 FPS (1536 SPF)
Compression mode               : Lossy
Stream size                    : 219 MiB (5%)
Service kind                   : Complete Main

截图




BT种子下载
梦幻天堂·龙网(www.LWgod.org).非诚勿扰3.征婚启事.torrent (21.26 KB, 下载次数: 2167)

0

主题

55

帖子

92

积分

龙之子

Rank: 8Rank: 8Rank: 8Rank: 8

积分
92
发表于 2024-4-2 15:41:09 | 显示全部楼层
感谢航子分享~~
我要这天再遮不住我眼,要这地再埋不住我心。

19

主题

6万

帖子

7万

积分

天地独尊龙王

梦幻天使

Rank: 33Rank: 33Rank: 33Rank: 33Rank: 33

积分
76328
发表于 2024-4-2 16:04:26 | 显示全部楼层
非常感谢航子无私分享精彩影片!

1

主题

4496

帖子

6285

积分

海龙王

Rank: 25Rank: 25Rank: 25Rank: 25Rank: 25

积分
6285
发表于 2024-4-2 16:14:11 | 显示全部楼层
感谢楼主分享!!!!

1

主题

733

帖子

2498

积分

赤血神龙

Rank: 20Rank: 20Rank: 20Rank: 20

积分
2498
QQ
发表于 2024-4-2 16:20:12 | 显示全部楼层

感谢楼主分享!!!!

0

主题

263

帖子

2834

积分

赤血神龙

Rank: 20Rank: 20Rank: 20Rank: 20

积分
2834
发表于 2024-4-2 16:24:51 | 显示全部楼层
感谢航子,辛苦发片!

0

主题

258

帖子

389

积分

龙少爷

Rank: 10Rank: 10

积分
389
发表于 2024-4-2 17:19:15 | 显示全部楼层

感谢航子分享~~

0

主题

165

帖子

497

积分

龙少爷

Rank: 10Rank: 10

积分
497
发表于 2024-4-2 17:22:08 | 显示全部楼层
感谢航子分享,辛苦。

0

主题

6933

帖子

9492

积分

海龙王

Rank: 25Rank: 25Rank: 25Rank: 25Rank: 25

积分
9492
发表于 2024-4-2 17:32:19 | 显示全部楼层
谢谢楼主分享!!

0

主题

408

帖子

3387

积分

赤血神龙

Rank: 20Rank: 20Rank: 20Rank: 20

积分
3387
发表于 2024-4-2 17:41:41 | 显示全部楼层
楼主辛苦,多谢分享。

1

主题

1449

帖子

4388

积分

赤血神龙

Rank: 20Rank: 20Rank: 20Rank: 20

积分
4388
QQ
发表于 2024-4-2 18:36:04 | 显示全部楼层
tks for share...........

0

主题

68

帖子

121

积分

龙之子

Rank: 8Rank: 8Rank: 8Rank: 8

积分
121
发表于 2024-4-2 18:57:08 | 显示全部楼层
感谢楼主分享!!!!

0

主题

8388

帖子

1万

积分

神界龙王

Rank: 30Rank: 30Rank: 30Rank: 30

积分
12315
发表于 2024-4-2 20:06:52 | 显示全部楼层

0

主题

2962

帖子

4222

积分

赤血神龙

Rank: 20Rank: 20Rank: 20Rank: 20

积分
4222
发表于 2024-4-2 20:23:17 | 显示全部楼层
感谢航子分享!

0

主题

649

帖子

2779

积分

赤血神龙

Rank: 20Rank: 20Rank: 20Rank: 20

积分
2779
发表于 2024-4-2 20:54:23 | 显示全部楼层
好聲好影 支持AI不孤單題材  感謝 航子大大
您需要登录后才可以回帖 登录 | 立即注册

本版积分规则

小黑屋|梦幻天堂·龙网

GMT+8, 2024-4-23 00:45 , Processed in 0.201104 second(s), 29 queries , Gzip On.

Powered by Discuz! X3.2

© 2001-2013 Comsenz Inc.

快速回复 返回顶部 返回列表