梦幻天堂·龙网

 找回密码
 立即注册
查看: 9338|回复: 102

[最新剧集龙网转发] 【龙网转发】【中2023高分必看】【三体.中国版.全26集】【WebDL-2160p.MKV】【国语】

[复制链接]

2881

主题

3万

帖子

7万

积分

九鼎龙王·坛主

偶系漂漂滴龙民

Rank: 46Rank: 46Rank: 46Rank: 46Rank: 46Rank: 46

积分
76023

航子大神勋章

发表于 2024-4-8 14:51:29 | 显示全部楼层 |阅读模式
此为最新的周年纪念版,被视为导演剪辑版
对原版的节奏进行了加快处理,使剧情更加紧凑
加强了部分特效,一些内容顺序做了调整
比原版更好!原版为30集,周年纪念版为26集


海报





译  名 三体/三体剧版 周年纪念版
片  名 Three-Body
年  代 2023
国  家 中国
类  别 科幻/悬疑/剧情
语  言 汉语普通话/英语
字  幕 中文硬字幕
评  分 8.7/10 from 462,518 users
链  接 https://movie.douban.com/subject/26647087
文件大小 28.8 GB
单集片长 45 Min
集  数 26
导  演 杨磊 Lei Yang
主  演 张鲁一 Luyi Zhang
     于和伟 Hewei Yu
     陈瑾 Jin Chen
     王子文 Ava Wang
     林永健 Yongjian Lin
     李小冉 Xiaoran Li
     王传君 Chuanjun Wang
     张帆 Fan Zhang
     白客 White. K
     涂松岩 Songyan Tu
     刘敏 Min Liu

简介

  21世纪初,地球基础科学遭到前所未有的动摇,许多科学家绝望疯狂,自杀身亡。风暴即将到来的前夕,许多敏感的人隐隐嗅到毁灭的气息。这一天,纳米科学家汪淼(张鲁一 饰)被粗鲁的警官史强(于和伟 饰)请到联合作战中心,继而得知科学家们的死亡似乎和一个名为“科学边界(ETO)”的组织有关。作战中心希望汪淼潜入该组织,调查他们与死亡科学家乃至一款神秘游戏《三体》的关联。眼前不断倒计时的数字,ETO负责人申玉菲(李小冉 饰)所预测宇宙闪烁,以及《三体》中那不断毁灭又重生的文明,都令汪淼和大史深感困惑与好奇。而看似平凡的老年科学家叶文洁(陈瑾 饰),她的出现又将一切引向数光年外的未知……

  本片根据刘慈欣同名科幻小说改编。

Video
Format                         : HEVC
Format/Info                    : High Efficiency Video Coding
Format profile                 : Main@L5@Main
Codec ID                       : V_MPEGH/ISO/HEVC
Duration                       : 42 min 44 s
Bit rate                       : 2 778 kb/s
Width                          : 3 840 pixels
Height                         : 1 634 pixels
Display aspect ratio           : 2.35:1
Frame rate mode                : Constant
Frame rate                     : 25.000 FPS
Color space                    : YUV
Chroma subsampling             : 4:2:0
Bit depth                      : 8 bits
Bits/(Pixel*Frame)             : 0.018
Stream size                    : 849 MiB (92%)
Color range                    : Limited
Color primaries                : BT.709
Transfer characteristics       : BT.709
Matrix coefficients            : BT.709

Audio
Format                         : E-AC-3
Format/Info                    : Enhanced AC-3
Commercial name                : Dolby Digital Plus
Codec ID                       : A_EAC3
Duration                       : 42 min 44 s
Bit rate mode                  : Constant
Bit rate                       : 256 kb/s
Channel(s)                     : 2 channels
Channel layout                 : L R
Sampling rate                  : 48.0 kHz
Frame rate                     : 31.250 FPS (1536 SPF)
Compression mode               : Lossy
Delay relative to video        : -42 ms
Stream size                    : 78.3 MiB (8%)
Service kind                   : Complete Main

截图






BT种子下载
梦幻天堂·龙网(www.LWgod.org).三体.中国版.周年纪念版.全26集.torrent (148.09 KB, 下载次数: 3458)

20

主题

6万

帖子

8万

积分

天地独尊龙王

梦幻天使

Rank: 33Rank: 33Rank: 33Rank: 33Rank: 33

积分
82228
发表于 2024-4-8 15:56:24 | 显示全部楼层
非常感谢航子分享精彩剧集!

0

主题

17

帖子

573

积分

龙的传人

Rank: 13Rank: 13Rank: 13

积分
573
发表于 2024-4-8 16:18:04 | 显示全部楼层
国内版还是不错的

2

主题

1791

帖子

2416

积分

赤血神龙

Rank: 20Rank: 20Rank: 20Rank: 20

积分
2416
发表于 2024-4-8 16:34:46 | 显示全部楼层
谢谢大大的分享。。。。

0

主题

12

帖子

58

积分

泡泡龙

Rank: 5Rank: 5Rank: 5

积分
58
发表于 2024-4-8 16:40:41 | 显示全部楼层
期待已久,感谢感谢

1

主题

776

帖子

2613

积分

赤血神龙

Rank: 20Rank: 20Rank: 20Rank: 20

积分
2613
QQ
发表于 2024-4-8 16:45:13 | 显示全部楼层
必须点个赞

1

主题

523

帖子

1354

积分

神龙

Rank: 15Rank: 15Rank: 15

积分
1354
发表于 2024-4-8 17:20:54 | 显示全部楼层
很好很好,不错不错

0

主题

408

帖子

3387

积分

赤血神龙

Rank: 20Rank: 20Rank: 20Rank: 20

积分
3387
发表于 2024-4-8 17:24:10 | 显示全部楼层
楼主辛苦,多谢分享。

1

主题

103

帖子

322

积分

龙少爷

Rank: 10Rank: 10

积分
322
发表于 2024-4-8 17:45:32 | 显示全部楼层
第一次离你这么近

1

主题

8898

帖子

1万

积分

神界龙王

Rank: 30Rank: 30Rank: 30Rank: 30

积分
13145
发表于 2024-4-8 18:27:03 | 显示全部楼层
楼主辛苦,多谢分享。

1

主题

1485

帖子

4491

积分

赤血神龙

Rank: 20Rank: 20Rank: 20Rank: 20

积分
4491
QQ
发表于 2024-4-8 18:33:42 | 显示全部楼层
tks for share..............

1

主题

94

帖子

957

积分

龙的传人

Rank: 13Rank: 13Rank: 13

积分
957
发表于 2024-4-8 18:44:51 | 显示全部楼层
太感谢了,刚看完不清的,再看一遍,谢谢

0

主题

126

帖子

234

积分

龙少爷

Rank: 10Rank: 10

积分
234
发表于 2024-4-8 19:42:38 | 显示全部楼层
感谢航子分享精彩剧集!

467

主题

2万

帖子

2万

积分

神界龙王

Rank: 30Rank: 30Rank: 30Rank: 30

积分
27764

龙网爱心勋章

发表于 2024-4-8 20:32:59 | 显示全部楼层
感谢航子分享精彩剧集!

0

主题

313

帖子

2957

积分

赤血神龙

Rank: 20Rank: 20Rank: 20Rank: 20

积分
2957
发表于 2024-4-8 21:37:06 | 显示全部楼层
感谢航子,辛苦发片~!希望多分享~高分、高清版本~美剧~国剧~!多谢,多谢!
您需要登录后才可以回帖 登录 | 立即注册

本版积分规则

小黑屋|梦幻天堂·龙网

GMT+8, 2024-6-22 13:14 , Processed in 0.203715 second(s), 29 queries , Gzip On.

Powered by Discuz! X3.2

© 2001-2013 Comsenz Inc.

快速回复 返回顶部 返回列表