梦幻天堂·龙网

 找回密码
 立即注册
查看: 10056|回复: 125

[最新电影龙网转发] 【龙网转发】【美国2024最新万众期待巨制】【功夫熊猫4】【WebDL-1080p.MKV】【中字】

  [复制链接]

2873

主题

3万

帖子

7万

积分

九鼎龙王·坛主

偶系漂漂滴龙民

Rank: 46Rank: 46Rank: 46Rank: 46Rank: 46Rank: 46

积分
75993

航子大神勋章

发表于 2024-4-10 17:23:36 | 显示全部楼层 |阅读模式
海报





译  名 功夫熊猫4
片  名 Kung Fu Panda 4
年  代 2024
国  家 美国/中国
类  别 动作/喜剧/动画/奇幻/冒险
语  言 英语
字  幕 中简/中繁/英文
评  分 6.5/10 from 48,089 users
链  接 https://movie.douban.com/subject/26715496
文件大小 4.65 GB
片  长 94 Min
导  演 迈克·米切尔 Mike Mitchell
     斯蒂芬妮·斯汀 Stephanie Stine
主  演 杰克·布莱克 Jack Black
     奥卡菲娜 Awkwafina
     维奥拉·戴维斯 Viola Davis
     达斯汀·霍夫曼 Dustin Hoffman
     布莱恩·克兰斯顿 Bryan Cranston
     吴汉章 James Hong
     伊恩·麦柯肖恩 Ian McShane
     关继威 Ke Huy Quan
     钱信伊 Ronny Chieng
     洛瑞·坦·齐恩 Lori Tan Chinn
     塞斯·罗根 Seth Rogen

简介

  神龙大侠阿宝(杰克·布莱克 配音)再度归来,要被师父(达斯汀·霍夫曼 配音)强行进阶修行。系列全新最强反派魅影妖后(维奥拉·戴维斯 配音)登场,神秘莫测的她可以幻化成每一个阿宝的昔日宿敌。此次阿宝又结识了小真(奥卡菲娜 配音)等新伙伴,并将一同开启这场冒险旅程。

Video
Format                         : AVC
Format/Info                    : Advanced Video Codec
Format profile                 : High@L4
Format settings                : CABAC / 4 Ref Frames
Format settings, CABAC         : Yes
Format settings, Reference fra : 4 frames
Codec ID                       : V_MPEG4/ISO/AVC
Duration                       : 1 h 35 min
Bit rate mode                  : Constant
Bit rate                       : 6 228 kb/s
Nominal bit rate               : 10 000 kb/s
Width                          : 1 920 pixels
Height                         : 800 pixels
Display aspect ratio           : 2.40:1
Frame rate mode                : Constant
Frame rate                     : 23.976 (24000/1001) FPS
Color space                    : YUV
Chroma subsampling             : 4:2:0
Bit depth                      : 8 bits
Scan type                      : Progressive
Bits/(Pixel*Frame)             : 0.169
Stream size                    : 4.14 GiB (89%)
Color range                    : Limited
Color primaries                : BT.709
Transfer characteristics       : BT.709
Matrix coefficients            : BT.709

Audio
Format                         : E-AC-3 JOC
Format/Info                    : Enhanced AC-3 with Joint Object Coding
Commercial name                : Dolby Digital Plus with Dolby Atmos
Codec ID                       : A_EAC3
Duration                       : 1 h 33 min
Bit rate mode                  : Constant
Bit rate                       : 768 kb/s
Channel(s)                     : 6 channels
Channel layout                 : L R C LFE Ls Rs
Sampling rate                  : 48.0 kHz
Frame rate                     : 31.250 FPS (1536 SPF)
Compression mode               : Lossy
Delay relative to video        : 17 ms
Stream size                    : 514 MiB (11%)
Language                       : English
Service kind                   : Complete Main
Complexity index               : 16
Number of dynamic objects      : 15
Bed channel count              : 1 channel
Bed channel configuration      : LFE

截图




BT种子下载
梦幻天堂·龙网(www.LWgod.org).功夫熊猫4.torrent (24.46 KB, 下载次数: 5270)

7

主题

691

帖子

3499

积分

升龙霸·VIP

Rank: 22Rank: 22Rank: 22Rank: 22

积分
3499

龙网VIP·银牌龙网VIP·银章

发表于 2024-4-10 17:49:03 | 显示全部楼层
谢谢分享

0

主题

322

帖子

584

积分

龙的传人

Rank: 13Rank: 13Rank: 13

积分
584
发表于 2024-4-10 17:49:09 | 显示全部楼层
感谢航子分享

1

主题

29

帖子

894

积分

龙的传人

Rank: 13Rank: 13Rank: 13

积分
894
发表于 2024-4-10 17:57:04 | 显示全部楼层
感谢航子分享

19

主题

6万

帖子

8万

积分

天地独尊龙王

梦幻天使

Rank: 33Rank: 33Rank: 33Rank: 33Rank: 33

积分
81699
发表于 2024-4-10 18:04:45 | 显示全部楼层
非常感谢航子分享精彩影片!

0

主题

408

帖子

3387

积分

赤血神龙

Rank: 20Rank: 20Rank: 20Rank: 20

积分
3387
发表于 2024-4-10 18:11:48 | 显示全部楼层
楼主辛苦,多谢分享。

1

主题

8871

帖子

1万

积分

神界龙王

Rank: 30Rank: 30Rank: 30Rank: 30

积分
13099
发表于 2024-4-10 18:25:33 | 显示全部楼层
谢谢分享
楼主辛苦,多谢分享。

1

主题

522

帖子

1340

积分

神龙

Rank: 15Rank: 15Rank: 15

积分
1340
发表于 2024-4-10 18:27:41 | 显示全部楼层
我还是等蓝光版的吧,不过还是感谢航子姐姐百忙之中分享影片

1

主题

1480

帖子

4463

积分

赤血神龙

Rank: 20Rank: 20Rank: 20Rank: 20

积分
4463
QQ
发表于 2024-4-10 18:40:24 | 显示全部楼层
tks for share...............

1

主题

769

帖子

2580

积分

赤血神龙

Rank: 20Rank: 20Rank: 20Rank: 20

积分
2580
QQ
发表于 2024-4-10 19:24:27 | 显示全部楼层
多谢分享。

1

主题

474

帖子

1450

积分

神龙

Rank: 15Rank: 15Rank: 15

积分
1450
发表于 2024-4-10 19:53:30 | 显示全部楼层
感谢航子分享
ABR告诉我:没有行动的远见是白日梦,没有远见的行动是恶梦。

0

主题

46

帖子

158

积分

龙之子

Rank: 8Rank: 8Rank: 8Rank: 8

积分
158
发表于 2024-4-10 19:57:25 | 显示全部楼层
阿宝都出四了

2

主题

2万

帖子

2万

积分

神界龙王

Rank: 30Rank: 30Rank: 30Rank: 30

积分
29813
发表于 2024-4-10 20:23:30 | 显示全部楼层
多谢航子分享
戏剧人生

2

主题

1787

帖子

2397

积分

赤血神龙

Rank: 20Rank: 20Rank: 20Rank: 20

积分
2397
发表于 2024-4-10 20:30:38 | 显示全部楼层
谢谢分享,昨天刚看了影院版

1

主题

636

帖子

2190

积分

赤血神龙

Rank: 20Rank: 20Rank: 20Rank: 20

积分
2190
发表于 2024-4-10 22:19:31 | 显示全部楼层
感谢航子分享好片
您需要登录后才可以回帖 登录 | 立即注册

本版积分规则

小黑屋|梦幻天堂·龙网

GMT+8, 2024-5-30 07:35 , Processed in 0.202147 second(s), 27 queries , Gzip On.

Powered by Discuz! X3.2

© 2001-2013 Comsenz Inc.

快速回复 返回顶部 返回列表