梦幻天堂·龙网

 找回密码
 立即注册
查看: 8499|回复: 63

[最新电影龙网转发] 【龙网转发】【台2023最新高分获奖必看佳作】【老狐狸】【WebDL-1080p.MKV】【国语】

[复制链接]

2873

主题

3万

帖子

7万

积分

九鼎龙王·坛主

偶系漂漂滴龙民

Rank: 46Rank: 46Rank: 46Rank: 46Rank: 46Rank: 46

积分
75993

航子大神勋章

发表于 2024-4-13 18:13:05 | 显示全部楼层 |阅读模式
第60届金马奖最大赢家!
超级好片,不容错过!


海报





译  名 老狐狸/老狐狸没教我的事
片  名 Old Fox
年  代 2023
国  家 中国台湾
类  别 剧情
语  言 汉语普通话
字  幕 繁中硬字幕
评  分 8.1/10 from 20,833 users
链  接 https://movie.douban.com/subject/35611467
文件大小 6.14 GB
片  长 112 Min
导  演 萧雅全 Ya-chuan Hsiao
主  演 白润音 Run-yin Bai
     刘冠廷 Kuan-ting Liu
     陈慕义 Akio Chen
     刘奕儿 Eugenie Liu
     门胁麦 Mugi Kadowaki
     黄健玮 Chien-wei Huang
     温升豪 James Wen
     班铁翔 Tie-Hsiang Ban
     杨丽音 Li-Yin Yang
     傅孟柏 Meng-Po Fu
     高英轩 Ven Kao

简介

  故事发生在1990年全民皆股的年代,小男孩廖界(白润音 饰)与父亲廖泰来(刘冠廷 饰)相依为命,他们相信人性本善,没发现世界正在改变。股市飙涨、物价翻倍,有人一夕暴富,有人意识到现实残酷;单纯老实的廖界父子属于后者。不料,他们碰上了聪明狡猾的“老狐狸”(陈慕义 饰),命运道路可能截然不同。财富与良心两条岔路,该怎么选?

Video
Format                         : AVC
Format/Info                    : Advanced Video Codec
Format profile                 : High@L4
Format settings                : CABAC / 3 Ref Frames
Format settings, CABAC         : Yes
Format settings, Reference fra : 3 frames
Format settings, GOP           : M=1, N=30
Codec ID                       : V_MPEG4/ISO/AVC
Duration                       : 1 h 51 min
Bit rate                       : 7 872 kb/s
Width                          : 1 920 pixels
Height                         : 1 080 pixels
Display aspect ratio           : 16:9
Frame rate mode                : Constant
Frame rate                     : 29.970 (30000/1001) FPS
Color space                    : YUV
Chroma subsampling             : 4:2:0
Bit depth                      : 8 bits
Scan type                      : Progressive
Bits/(Pixel*Frame)             : 0.127
Stream size                    : 6.04 GiB (98%)

Audio
Format                         : AAC LC
Format/Info                    : Advanced Audio Codec Low Complexity
Codec ID                       : A_AAC-2
Duration                       : 1 h 51 min
Bit rate                       : 128 kb/s
Channel(s)                     : 2 channels
Channel layout                 : L R
Sampling rate                  : 48.0 kHz
Frame rate                     : 46.875 FPS (1024 SPF)
Compression mode               : Lossy
Stream size                    : 103 MiB (2%)

截图




BT种子下载
梦幻天堂·龙网(www.LWgod.org).老狐狸.老狐狸没教我的事.torrent (31.94 KB, 下载次数: 2111)

0

主题

408

帖子

3387

积分

赤血神龙

Rank: 20Rank: 20Rank: 20Rank: 20

积分
3387
发表于 2024-4-13 18:40:19 | 显示全部楼层
楼主辛苦,多谢分享。

1

主题

29

帖子

894

积分

龙的传人

Rank: 13Rank: 13Rank: 13

积分
894
发表于 2024-4-13 19:01:03 | 显示全部楼层
感谢航子分享

0

主题

110

帖子

735

积分

升龙霸·VIP

Rank: 22Rank: 22Rank: 22Rank: 22

积分
735

龙网VIP·银星

发表于 2024-4-13 19:28:23 | 显示全部楼层
航子辛苦啦

19

主题

6万

帖子

8万

积分

天地独尊龙王

梦幻天使

Rank: 33Rank: 33Rank: 33Rank: 33Rank: 33

积分
81699
发表于 2024-4-13 19:47:40 | 显示全部楼层
非常感谢航子分享精彩影片!

0

主题

751

帖子

1395

积分

神龙

Rank: 15Rank: 15Rank: 15

积分
1395
发表于 2024-4-13 20:03:52 | 显示全部楼层
谢谢分享               

1

主题

636

帖子

2190

积分

赤血神龙

Rank: 20Rank: 20Rank: 20Rank: 20

积分
2190
发表于 2024-4-13 20:26:29 | 显示全部楼层
感谢航子分享好片

1

主题

522

帖子

1340

积分

神龙

Rank: 15Rank: 15Rank: 15

积分
1340
发表于 2024-4-13 21:13:31 | 显示全部楼层
谢谢分享影片

0

主题

301

帖子

2918

积分

赤血神龙

Rank: 20Rank: 20Rank: 20Rank: 20

积分
2918
发表于 2024-4-13 21:41:06 | 显示全部楼层
感谢航子,辛苦发片!

0

主题

9579

帖子

1万

积分

神界龙王

Rank: 30Rank: 30Rank: 30Rank: 30

积分
10106
发表于 2024-4-13 22:26:02 | 显示全部楼层
正想找这部片子看看,因为看新闻正好看到关于这部电影的以及主演刘冠廷评述。感谢航子分享!

0

主题

3855

帖子

4928

积分

赤血神龙

Rank: 20Rank: 20Rank: 20Rank: 20

积分
4928
发表于 2024-4-13 22:30:21 | 显示全部楼层
感谢航子分享精彩影片

467

主题

2万

帖子

2万

积分

神界龙王

Rank: 30Rank: 30Rank: 30Rank: 30

积分
27441

龙网爱心勋章

发表于 2024-4-13 22:32:37 | 显示全部楼层
感谢航子分享

1

主题

1480

帖子

4463

积分

赤血神龙

Rank: 20Rank: 20Rank: 20Rank: 20

积分
4463
QQ
发表于 2024-4-13 23:24:00 | 显示全部楼层
tks for share..............

0

主题

147

帖子

5857

积分

海龙王

Rank: 25Rank: 25Rank: 25Rank: 25Rank: 25

积分
5857
发表于 2024-4-14 01:38:32 | 显示全部楼层
感谢航子分享~

0

主题

1万

帖子

1万

积分

神界龙王

Rank: 30Rank: 30Rank: 30Rank: 30

积分
16964
QQ
发表于 2024-4-14 07:21:36 | 显示全部楼层
感谢航子分享
一切终会过去
您需要登录后才可以回帖 登录 | 立即注册

本版积分规则

小黑屋|梦幻天堂·龙网

GMT+8, 2024-5-30 09:02 , Processed in 0.206140 second(s), 27 queries , Gzip On.

Powered by Discuz! X3.2

© 2001-2013 Comsenz Inc.

快速回复 返回顶部 返回列表