梦幻天堂·龙网

 找回密码
 立即注册
查看: 15162|回复: 126

[最新剧集龙网转发] 【龙网转发】【美2024最新末世废土科幻】【辐射.全8集】【WebDL-1080p.MKV】【中字】

  [复制链接]

2914

主题

3万

帖子

7万

积分

九鼎龙王·坛主

偶系漂漂滴龙民

Rank: 46Rank: 46Rank: 46Rank: 46Rank: 46Rank: 46

积分
76126

航子大神勋章

发表于 2024-4-15 15:18:42 | 显示全部楼层 |阅读模式
海报





译  名 辐射/异尘余生(港/台)
片  名 Fallout
年  代 2024
国  家 美国
类  别 动作/科幻/战争/冒险/剧情
语  言 英语
字  幕 中简/中繁/英文
评  分 8.4/10 from 10,321 users
链  接 https://movie.douban.com/subject/35128081
文件大小 19.9 GB
单集片长 45-60 Min
集  数 8
导  演 乔纳森·诺兰 Jonathan Nolan
     韦恩·叶 Wayne Yip
     弗雷德·托耶 Fred Toye
     克莱尔·基尔纳 Clare Kilner
     丹尼尔·格雷·朗诺 Daniel Gray Longino
主  演 艾拉·珀内尔 Ella Purnell
     凯尔·麦克拉克伦 Kyle MacLachlan
     沃尔顿·戈金斯 Walton Goggins
     迈克尔·爱默生 Michael Emerson
     希利亚·门德斯-琼斯 Xelia Mendes-Jones
     阿伦·莫滕 Aaron Moten
     莫伊塞斯·阿里亚斯 Moises Arias
     约翰尼·彭伯顿 Johnny Pemberton
     雪梨·道比什 Cherien Dabis
     戴尔·迪奇 Dale Dickey

简介

  该剧改编自同名游戏,讲述了在一个艺术、科技和文化风格为1950年代的复古未来主义的架空世界,一场核战争在2077年10月23日爆发后所带来的后末日废土世界的故事。

Video
Format                         : AVC
Format/Info                    : Advanced Video Codec
Format profile                 : High@L4
Format settings                : CABAC / 4 Ref Frames
Format settings, CABAC         : Yes
Format settings, Reference fra : 4 frames
Codec ID                       : V_MPEG4/ISO/AVC
Duration                       : 1 h 14 min
Bit rate                       : 4 882 kb/s
Width                          : 1 920 pixels
Height                         : 1 080 pixels
Display aspect ratio           : 16:9
Frame rate mode                : Constant
Frame rate                     : 24.000 FPS
Color space                    : YUV
Chroma subsampling             : 4:2:0
Bit depth                      : 8 bits
Scan type                      : Progressive
Bits/(Pixel*Frame)             : 0.098
Stream size                    : 2.56 GiB (88%)
Color range                    : Limited
Color primaries                : BT.709
Transfer characteristics       : BT.709
Matrix coefficients            : BT.709

Audio
Format                         : E-AC-3
Format/Info                    : Enhanced AC-3
Commercial name                : Dolby Digital Plus
Codec ID                       : A_EAC3
Duration                       : 1 h 14 min
Bit rate mode                  : Constant
Bit rate                       : 640 kb/s
Channel(s)                     : 6 channels
Channel layout                 : L R C LFE Ls Rs
Sampling rate                  : 48.0 kHz
Frame rate                     : 31.250 FPS (1536 SPF)
Compression mode               : Lossy
Stream size                    : 343 MiB (12%)
Language                       : English
Service kind                   : Complete Main

截图






BT种子下载
梦幻天堂·龙网(www.LWgod.org).辐射.异尘余生.第一季.全8集.torrent (101.84 KB, 下载次数: 3838)

评分

1

查看全部评分

1

主题

810

帖子

2684

积分

赤血神龙

Rank: 20Rank: 20Rank: 20Rank: 20

积分
2684
QQ
发表于 2024-4-15 16:22:08 | 显示全部楼层
感谢航子发片

0

主题

1万

帖子

1万

积分

神界龙王

Rank: 30Rank: 30Rank: 30Rank: 30

积分
17607
QQ
发表于 2024-4-15 16:29:21 | 显示全部楼层
感谢航子分享
一切终会过去

0

主题

940

帖子

1452

积分

神龙

Rank: 15Rank: 15Rank: 15

积分
1452
发表于 2024-4-15 16:39:22 | 显示全部楼层

感谢航子发片

22

主题

6万

帖子

8万

积分

天地独尊龙王

梦幻天使

Rank: 33Rank: 33Rank: 33Rank: 33Rank: 33

积分
82914
发表于 2024-4-15 16:50:25 | 显示全部楼层
非常感谢航子无私分享精彩影片!

0

主题

408

帖子

3387

积分

赤血神龙

Rank: 20Rank: 20Rank: 20Rank: 20

积分
3387
发表于 2024-4-15 17:48:28 | 显示全部楼层
楼主辛苦,多谢分享。

1

主题

61

帖子

524

积分

龙的传人

Rank: 13Rank: 13Rank: 13

积分
524
发表于 2024-4-15 17:51:12 | 显示全部楼层
听说拍得不错,感谢发片

0

主题

352

帖子

3034

积分

赤血神龙

Rank: 20Rank: 20Rank: 20Rank: 20

积分
3034
发表于 2024-4-15 18:00:31 | 显示全部楼层
感谢航子,辛苦发片!已看完,很不错!

0

主题

3732

帖子

5229

积分

升龙霸·VIP

Rank: 22Rank: 22Rank: 22Rank: 22

积分
5229

龙网VIP·银勋

发表于 2024-4-15 18:52:17 | 显示全部楼层
感谢航子分享!

0

主题

1125

帖子

2099

积分

赤血神龙

Rank: 20Rank: 20Rank: 20Rank: 20

积分
2099
发表于 2024-4-15 19:17:15 | 显示全部楼层

听说拍得不错,感谢发片

467

主题

2万

帖子

2万

积分

神界龙王

Rank: 30Rank: 30Rank: 30Rank: 30

积分
27978

龙网爱心勋章

发表于 2024-4-15 19:48:42 | 显示全部楼层
感谢航子分享!

0

主题

328

帖子

652

积分

龙的传人

Rank: 13Rank: 13Rank: 13

积分
652
发表于 2024-4-15 20:08:34 | 显示全部楼层
早就在各平台上看过宣传讲解视频了,想着有空下载看看,没想到航子已经给打好包了!赞
头像被屏蔽

0

主题

8466

帖子

1万

积分

禁止发言

积分
12483
发表于 2024-4-15 20:31:37 | 显示全部楼层
提示: 作者被禁止或删除 内容自动屏蔽

2

主题

2万

帖子

3万

积分

神界龙王

Rank: 30Rank: 30Rank: 30Rank: 30

积分
30451
发表于 2024-4-15 21:21:21 | 显示全部楼层
谢谢航子分享
戏剧人生

1

主题

523

帖子

1380

积分

神龙

Rank: 15Rank: 15Rank: 15

积分
1380
发表于 2024-4-15 22:05:32 | 显示全部楼层
十分高兴航子方片
您需要登录后才可以回帖 登录 | 立即注册

本版积分规则

小黑屋|梦幻天堂·龙网

GMT+8, 2024-7-21 11:30 , Processed in 0.231612 second(s), 28 queries , Gzip On.

Powered by Discuz! X3.2

© 2001-2013 Comsenz Inc.

快速回复 返回顶部 返回列表