梦幻天堂·龙网

 找回密码
 立即注册
查看: 4381|回复: 74

[最新电影龙网转发] 【龙网转发】【贾玲2024万众期待票房必看】【热辣滚烫】【WebDL-2160p.MKV】【国语】

[复制链接]

2873

主题

3万

帖子

7万

积分

九鼎龙王·坛主

偶系漂漂滴龙民

Rank: 46Rank: 46Rank: 46Rank: 46Rank: 46Rank: 46

积分
75987

航子大神勋章

发表于 2024-4-22 15:09:59 | 显示全部楼层 |阅读模式
海报





译  名 热辣滚烫/中国版百元之恋
片  名 Yolo
年  代 2024
国  家 中国
类  别 剧情/喜剧
语  言 汉语普通话
字  幕 中文硬字幕
评  分 7.8/10 from 687,917 users
链  接 https://movie.douban.com/subject/36081094
文件大小 4.56 GB
片  长 129 Min
导  演 贾玲 Ling Jia
主  演 贾玲 Ling Jia
     雷佳音 Jiayin Lei
     张小斐 Xiaofei Zhang
     杨紫 Andy Yang
     沙溢 Yi Sha
     乔杉 Shan Qiao
     李雪琴 Xueqin Li
     马丽 Li Ma
     魏翔 Xiang Wei
     赵海燕 Haiyan Zhao
     张琪 Qi Zhang

简介

  大学毕业后仅仅工作短暂的一段时间,杜乐莹(贾玲 饰)便退回家中,宅家长达十年之久。她无所事事,拒绝和外界做过多接触,甚至和家人的关系也变得紧张起来。在和离婚回到娘家的妹妹乐丹(张小斐 饰)一次激烈的冲突后,乐莹选择离家出走,并且在烧烤店找了服务员的工作勉强维生。爱情、亲情、人生,似乎一时间均跌入了谷底,而阴差阳错间乐莹又结识了落魄的拳击教练昊坤(雷佳音 饰)。她支持着他的梦想,彼此又不得不去面对残酷的现实。人生至暗时刻,随波逐流的女孩是否决心逆流而上?

  本片改编自日本电影《百元之恋》。

Video
Format                         : HEVC
Format/Info                    : High Efficiency Video Coding
Format profile                 : Main 10 @ L5.1 @ Main
Codec ID                       : V_MPEGH/ISO/HEVC
Duration                       : 2 h 9 min
Bit rate                       : 4 273 kb/s
Width                          : 3 840 pixels
Height                         : 1 616 pixels
Display aspect ratio           : 2.40:1
Frame rate mode                : Constant
Frame rate                     : 60.000 FPS
Color space                    : YUV
Chroma subsampling             : 4:2:0
Bit depth                      : 10 bits
Bits/(Pixel*Frame)             : 0.011
Stream size                    : 3.87 GiB (85%)
Color range                    : Limited
Color primaries                : BT.709
Transfer characteristics       : BT.709
Matrix coefficients            : BT.709

Audio
Format                         : E-AC-3 JOC
Format/Info                    : Enhanced AC-3 with Joint Object Coding
Commercial name                : Dolby Digital Plus with Dolby Atmos
Codec ID                       : A_EAC3
Duration                       : 2 h 9 min
Bit rate mode                  : Constant
Bit rate                       : 768 kb/s
Channel(s)                     : 6 channels
Channel layout                 : L R C LFE Ls Rs
Sampling rate                  : 48.0 kHz
Frame rate                     : 31.250 FPS (1536 SPF)
Compression mode               : Lossy
Stream size                    : 711 MiB (15%)
Service kind                   : Complete Main
Complexity index               : 16
Number of dynamic objects      : 15
Bed channel count              : 1 channel
Bed channel configuration      : LFE

截图




BT种子下载
梦幻天堂·龙网(www.321n.net).热辣滚烫.中国版百元之恋.torrent (24.06 KB, 下载次数: 1990)

5

主题

63

帖子

1800

积分

神龙

Rank: 15Rank: 15Rank: 15

积分
1800
发表于 2024-4-22 15:42:47 | 显示全部楼层
欢迎航子又回来啦

0

主题

210

帖子

1020

积分

神龙

Rank: 15Rank: 15Rank: 15

积分
1020
发表于 2024-4-22 15:48:54 | 显示全部楼层
欢迎老大回来,感谢分享好片…………………………

1

主题

522

帖子

1340

积分

神龙

Rank: 15Rank: 15Rank: 15

积分
1340
发表于 2024-4-22 15:54:56 | 显示全部楼层
筒子们,航子又回来了

0

主题

299

帖子

2909

积分

赤血神龙

Rank: 20Rank: 20Rank: 20Rank: 20

积分
2909
发表于 2024-4-22 16:06:49 | 显示全部楼层
感谢航子,辛苦发片!

1

主题

768

帖子

2571

积分

赤血神龙

Rank: 20Rank: 20Rank: 20Rank: 20

积分
2571
QQ
发表于 2024-4-22 16:35:13 | 显示全部楼层
谢谢分享好片
头像被屏蔽

0

主题

8466

帖子

1万

积分

禁止发言

积分
12433
发表于 2024-4-22 17:15:49 | 显示全部楼层
提示: 作者被禁止或删除 内容自动屏蔽

0

主题

63

帖子

102

积分

龙之子

Rank: 8Rank: 8Rank: 8Rank: 8

积分
102
发表于 2024-4-22 17:24:19 | 显示全部楼层
谢谢分享好片

1

主题

19

帖子

70

积分

龙之子

Rank: 8Rank: 8Rank: 8Rank: 8

积分
70
发表于 2024-4-22 19:12:04 | 显示全部楼层
真的非常非常喜欢这个电影,之前去电影院看过了,还想无限次看!感谢楼主的分享!!

0

主题

1万

帖子

1万

积分

神界龙王

Rank: 30Rank: 30Rank: 30Rank: 30

积分
16859
QQ
发表于 2024-4-22 20:12:58 | 显示全部楼层
感谢航子分享
一切终会过去

19

主题

6万

帖子

8万

积分

天地独尊龙王

梦幻天使

Rank: 33Rank: 33Rank: 33Rank: 33Rank: 33

积分
81428
发表于 2024-4-22 20:21:09 | 显示全部楼层
非常感谢航子无私分享精彩影片!

2

主题

2万

帖子

2万

积分

神界龙王

Rank: 30Rank: 30Rank: 30Rank: 30

积分
29707
发表于 2024-4-22 20:45:54 | 显示全部楼层
多谢航子分享
戏剧人生

0

主题

862

帖子

2141

积分

赤血神龙

Rank: 20Rank: 20Rank: 20Rank: 20

积分
2141
发表于 2024-4-22 20:58:32 | 显示全部楼层
感謝分享!辛苦了航子美女!

0

主题

649

帖子

1698

积分

升龙霸·VIP

Rank: 22Rank: 22Rank: 22Rank: 22

积分
1698

龙网VIP·银徽龙网VIP·银牌

发表于 2024-4-22 21:29:21 | 显示全部楼层
感谢女神!跪求蓝光1080P!

1

主题

1480

帖子

4455

积分

赤血神龙

Rank: 20Rank: 20Rank: 20Rank: 20

积分
4455
QQ
发表于 2024-4-22 21:35:07 | 显示全部楼层
tks for share...........
您需要登录后才可以回帖 登录 | 立即注册

本版积分规则

小黑屋|梦幻天堂·龙网

GMT+8, 2024-5-22 01:03 , Processed in 0.368156 second(s), 29 queries , Gzip On.

Powered by Discuz! X3.2

© 2001-2013 Comsenz Inc.

快速回复 返回顶部 返回列表