梦幻天堂·龙网

 找回密码
 立即注册
查看: 7729|回复: 119

[最新电影龙网转发] 【龙网转发】【台2023高分犯罪动作爽片】【周处除三害】【WebDL-1080p.MKV】【中字】

  [复制链接]

2905

主题

3万

帖子

7万

积分

九鼎龙王·坛主

偶系漂漂滴龙民

Rank: 46Rank: 46Rank: 46Rank: 46Rank: 46Rank: 46

积分
76098

航子大神勋章

发表于 2024-4-23 15:36:29 | 显示全部楼层 |阅读模式
海报





译  名 周处除三害
片  名 The Pig, the Snake, and the Pigeon
年  代 2023
国  家 中国台湾
类  别 动作/犯罪
语  言 汉语普通话/闽南语/粤语
字  幕 中简/中繁
评  分 8.1/10 from 834,544 users
链  接 https://movie.douban.com/subject/36151692
文件大小 6.34 GB
片  长 134 Min
导  演 黄精甫 Ching-Po Wong
主  演 阮经天 Ethan Juan
     袁富华 Fu-wah Yuen
     陈以文 Yiwen Chen
     王净 Gingle Wang
     谢琼煖 Chiung-Hsuan Hsieh
     李李仁 Liren Li
     刘子铨 Tzu-Chuan Liu
     曾珮瑜 Peggy Tseng
     游安顺 An-shun Yu
     郑有杰 Yu-Chieh Cheng
     盛鉴 Chien Sheng

简介

  通缉犯陈桂林(阮经天 饰)在逃亡藏匿中失去最后一个亲人,同时得知自己只有不到三个月的生命。万念俱灰的他原打算投案自首,可是当发现他在三大通缉犯中仅仅排名第三时,内心突然躁动起来。在此之后,他决定仿效古时候周处除三害的故事,临终之际要在江湖上留下他的传奇名号。通过地下医生张贵卿(谢琼煖 饰),陈桂林找到了分别排名第二和第一的香港仔(袁富华 饰)和牛头的线索,随后踏上征途。贪嗔痴,三毒熬煎,红尘混沌之人,被业障缠绕,永远无法跳脱因果轮回……

  电影引用的“周处除三害”典故,见于《晋书·周处传》和《世说新语》。

Video
Format                         : AVC
Format/Info                    : Advanced Video Codec
Format profile                 : High@L4
Format settings                : CABAC / 4 Ref Frames
Format settings, CABAC         : Yes
Format settings, Reference fra : 4 frames
Codec ID                       : V_MPEG4/ISO/AVC
Duration                       : 2 h 14 min
Bit rate mode                  : Variable
Bit rate                       : 6 127 kb/s
Maximum bit rate               : 20.0 Mb/s
Width                          : 1 920 pixels
Height                         : 1 080 pixels
Display aspect ratio           : 16:9
Frame rate mode                : Constant
Frame rate                     : 24.000 FPS
Color space                    : YUV
Chroma subsampling             : 4:2:0
Bit depth                      : 8 bits
Scan type                      : Progressive
Bits/(Pixel*Frame)             : 0.123
Stream size                    : 5.73 GiB (90%)

Audio
Format                         : E-AC-3
Format/Info                    : Enhanced AC-3
Commercial name                : Dolby Digital Plus
Codec ID                       : A_EAC3
Duration                       : 2 h 14 min
Bit rate mode                  : Constant
Bit rate                       : 640 kb/s
Channel(s)                     : 6 channels
Channel layout                 : L R C LFE Ls Rs
Sampling rate                  : 48.0 kHz
Frame rate                     : 31.250 FPS (1536 SPF)
Compression mode               : Lossy
Stream size                    : 613 MiB (9%)
Language                       : Chinese
Service kind                   : Complete Main

截图




BT种子下载
梦幻天堂·龙网(www.321n.net).周处除三害.torrent (32.93 KB, 下载次数: 3018)

0

主题

90

帖子

61

积分

泡泡龙

Rank: 5Rank: 5Rank: 5

积分
61
发表于 2024-4-23 16:39:56 | 显示全部楼层
谢谢航子,找了好久了。

0

主题

1634

帖子

2303

积分

升龙霸·VIP

Rank: 22Rank: 22Rank: 22Rank: 22

积分
2303

龙网VIP·金勋

发表于 2024-4-23 16:57:35 | 显示全部楼层
电影很精彩,感谢分享

0

主题

343

帖子

3016

积分

赤血神龙

Rank: 20Rank: 20Rank: 20Rank: 20

积分
3016
发表于 2024-4-23 17:06:06 | 显示全部楼层
感谢航子,辛苦发片!

1

主题

523

帖子

1373

积分

神龙

Rank: 15Rank: 15Rank: 15

积分
1373
发表于 2024-4-23 17:14:07 | 显示全部楼层
筒子们,航子又回来了

0

主题

52

帖子

120

积分

升龙霸·VIP

Rank: 22Rank: 22Rank: 22Rank: 22

积分
120

龙网VIP·银勋

发表于 2024-4-23 17:26:35 | 显示全部楼层
寓意深刻的影片,值得关注。感谢航子发片!

0

主题

685

帖子

1781

积分

升龙霸·VIP

Rank: 22Rank: 22Rank: 22Rank: 22

积分
1781

龙网VIP·银徽龙网VIP·银牌龙网VIP·金勋

发表于 2024-4-23 18:25:47 | 显示全部楼层
还没看,就等航子发片呢,跪求蓝光1080P!

1

主题

221

帖子

340

积分

龙少爷

Rank: 10Rank: 10

积分
340
发表于 2024-4-23 18:26:09 | 显示全部楼层
感谢楼主分享

1

主题

1508

帖子

4541

积分

赤血神龙

Rank: 20Rank: 20Rank: 20Rank: 20

积分
4541
QQ
发表于 2024-4-23 18:45:56 | 显示全部楼层
tks for share..................

1

主题

801

帖子

2665

积分

赤血神龙

Rank: 20Rank: 20Rank: 20Rank: 20

积分
2665
QQ
发表于 2024-4-23 19:10:50 | 显示全部楼层
感谢楼主分享好片

22

主题

6万

帖子

8万

积分

天地独尊龙王

梦幻天使

Rank: 33Rank: 33Rank: 33Rank: 33Rank: 33

积分
82694
发表于 2024-4-23 19:50:33 | 显示全部楼层
非常感谢航子无私分享精彩影片!

2

主题

128

帖子

1791

积分

升龙霸·VIP

Rank: 22Rank: 22Rank: 22Rank: 22

积分
1791

龙网VIP·银星龙网VIP·银牌

发表于 2024-4-23 21:04:21 | 显示全部楼层
谢谢航子分享,下过其他版本的,一直没看,终于等到了

0

主题

7266

帖子

8141

积分

霸王龙·贵宾

狱血黑龙

Rank: 18Rank: 18

积分
8141
发表于 2024-4-23 21:32:15 | 显示全部楼层
感谢航子的好片分享,支持支持
当你不再拥有的时候,你唯一可以做的,就是令自己不要忘记!

0

主题

1万

帖子

1万

积分

神界龙王

Rank: 30Rank: 30Rank: 30Rank: 30

积分
17509
QQ
发表于 2024-4-23 21:41:10 | 显示全部楼层
感谢航子分享
一切终会过去

3

主题

1万

帖子

1万

积分

升龙霸·VIP

Rank: 22Rank: 22Rank: 22Rank: 22

积分
17215

龙网VIP·银勋

发表于 2024-4-23 21:51:12 | 显示全部楼层
好帖子一定要支持,谢谢楼主分享
您需要登录后才可以回帖 登录 | 立即注册

本版积分规则

小黑屋|梦幻天堂·龙网

GMT+8, 2024-7-13 22:03 , Processed in 1.044982 second(s), 29 queries , Gzip On.

Powered by Discuz! X3.2

© 2001-2013 Comsenz Inc.

快速回复 返回顶部 返回列表