梦幻天堂·龙网

 找回密码
 立即注册
查看: 10679|回复: 93

[最新电影龙网转发] 【龙网转发】【韩国2024最新票房冠军悬疑惊悚】【破墓】【WebDL-1080p.MKV】【中字】

[复制链接]

2905

主题

3万

帖子

7万

积分

九鼎龙王·坛主

偶系漂漂滴龙民

Rank: 46Rank: 46Rank: 46Rank: 46Rank: 46Rank: 46

积分
76098

航子大神勋章

发表于 2024-4-24 15:21:55 | 显示全部楼层 |阅读模式
海报





译  名 破墓
片  名 Exhuma
年  代 2024
国  家 韩国
类  别 悬疑/惊悚/恐怖
语  言 韩语/日语/英语
字  幕 中简/中繁
评  分 7.0/10 from 33,887 users
链  接 https://movie.douban.com/subject/35490167
文件大小 6.62 GB
片  长 134 Min
导  演 张在现 Jae-hyun Jang
主  演 崔岷植 Min-sik Choi
     金高银 Go-eun Kim
     柳海真 Hae-jin Yu
     李到晛 Do-hyun Lee
     全镇基 Jin-gi Jeon
     洪瑞俊 Seo-joon Hong
     李大卫 David Lee

简介

  在美国生活的某个富裕家庭身上持续发生奇怪的超自然现象,因此他们请来了在巫师之中著名的年轻巫师花林(金高银 饰)和奉吉(李到晛 饰)。

  花林和奉吉到达那个地方后救助了刚刚出生的婴儿,明白了他们祖先黑暗的影子正在降临于那家人身上的事实。

  花林和奉吉持续调查,为了驱除祖先向最棒的风水师尚德(崔岷植 饰)和入殓师荣根(柳海真 饰)请求帮助。惊讶的是那块墓地在韩国的某个偏僻村庄的阴凉之处被发现,最终进行破墓。但是破墓的同时,坟墓下方的不吉之气开始爆发……

Video
Format                         : AVC
Format/Info                    : Advanced Video Codec
Format profile                 : High@L4
Format settings                : CABAC / 4 Ref Frames
Format settings, CABAC         : Yes
Format settings, Reference fra : 4 frames
Codec ID                       : V_MPEG4/ISO/AVC
Duration                       : 2 h 13 min
Bit rate                       : 6 679 kb/s
Width                          : 1 920 pixels
Height                         : 1 038 pixels
Display aspect ratio           : 1.85:1
Frame rate mode                : Constant
Frame rate                     : 23.976 (24000/1001) FPS
Color space                    : YUV
Chroma subsampling             : 4:2:0
Bit depth                      : 8 bits
Scan type                      : Progressive
Bits/(Pixel*Frame)             : 0.140
Stream size                    : 6.25 GiB (94%)
Color range                    : Limited
Color primaries                : BT.709
Transfer characteristics       : BT.709
Matrix coefficients            : BT.709

Audio
Format                         : AC-3
Format/Info                    : Audio Coding 3
Commercial name                : Dolby Digital
Codec ID                       : A_AC3
Duration                       : 2 h 13 min
Bit rate mode                  : Constant
Bit rate                       : 384 kb/s
Channel(s)                     : 6 channels
Channel layout                 : L R C LFE Ls Rs
Sampling rate                  : 48.0 kHz
Frame rate                     : 31.250 FPS (1536 SPF)
Compression mode               : Lossy
Stream size                    : 368 MiB (5%)
Service kind                   : Complete Main

截图




BT种子下载
梦幻天堂·龙网(www.321n.net).破墓.torrent (34.3 KB, 下载次数: 3378)

0

主题

5281

帖子

7225

积分

升龙霸·VIP

Rank: 22Rank: 22Rank: 22Rank: 22

积分
7225

龙网VIP·银勋

发表于 2024-4-24 16:26:18 | 显示全部楼层

感谢航子分享

0

主题

1634

帖子

2303

积分

升龙霸·VIP

Rank: 22Rank: 22Rank: 22Rank: 22

积分
2303

龙网VIP·金勋

发表于 2024-4-24 16:35:55 | 显示全部楼层
感谢航子分享

0

主题

685

帖子

1781

积分

升龙霸·VIP

Rank: 22Rank: 22Rank: 22Rank: 22

积分
1781

龙网VIP·银徽龙网VIP·银牌龙网VIP·金勋

发表于 2024-4-24 17:17:40 | 显示全部楼层
刚在头条上看到这个电影的片段,哈哈。感谢航子大美女!期待《雷神4》《黑豹2》《蚁人3》《黑亚当》《雷霆沙赞2》《银河护卫队3》《闪电侠》《蓝甲虫》蓝光1080P!

点评

你在这点菜呢...^_^..  发表于 2024-4-25 02:57

1

主题

1954

帖子

5477

积分

海龙王

Rank: 25Rank: 25Rank: 25Rank: 25Rank: 25

积分
5477
发表于 2024-4-24 18:03:38 | 显示全部楼层
感謝航子分享精彩恐怖電影!!

1

主题

801

帖子

2665

积分

赤血神龙

Rank: 20Rank: 20Rank: 20Rank: 20

积分
2665
QQ
发表于 2024-4-24 18:40:10 | 显示全部楼层
据说挺好看的

1

主题

1万

帖子

2万

积分

神界龙王

Rank: 30Rank: 30Rank: 30Rank: 30

积分
21990

龙网爱心勋章

发表于 2024-4-24 18:44:09 | 显示全部楼层
欢迎航子回归
笑看红尘

0

主题

1万

帖子

1万

积分

神界龙王

Rank: 30Rank: 30Rank: 30Rank: 30

积分
17509
QQ
发表于 2024-4-24 18:45:02 | 显示全部楼层
感谢航子分享
一切终会过去

0

主题

343

帖子

3016

积分

赤血神龙

Rank: 20Rank: 20Rank: 20Rank: 20

积分
3016
发表于 2024-4-24 18:53:06 | 显示全部楼层
感谢航子,辛苦发片!

22

主题

6万

帖子

8万

积分

天地独尊龙王

梦幻天使

Rank: 33Rank: 33Rank: 33Rank: 33Rank: 33

积分
82694
发表于 2024-4-24 19:12:35 | 显示全部楼层
非常感谢航子无私分享精彩影片!

3

主题

936

帖子

1338

积分

龙网爱心高会

Rank: 18Rank: 18

积分
1338

龙网爱心勋章

发表于 2024-4-24 19:29:13 | 显示全部楼层
电影很精彩,多谢楼主分享。

0

主题

848

帖子

1222

积分

升龙霸·VIP

Rank: 22Rank: 22Rank: 22Rank: 22

积分
1222

龙网VIP·金勋

发表于 2024-4-24 20:08:04 | 显示全部楼层
感谢楼主分享
倘若我心中的山水,你眼中都看到,我便一步一莲花祈祷。

1

主题

352

帖子

975

积分

龙的传人

Rank: 13Rank: 13Rank: 13

积分
975
发表于 2024-4-24 20:20:53 | 显示全部楼层
支持,感谢航子大大

2

主题

2万

帖子

3万

积分

神界龙王

Rank: 30Rank: 30Rank: 30Rank: 30

积分
30344
发表于 2024-4-24 21:00:07 | 显示全部楼层
谢谢航子分享
戏剧人生

1

主题

523

帖子

1373

积分

神龙

Rank: 15Rank: 15Rank: 15

积分
1373
发表于 2024-4-24 21:11:37 | 显示全部楼层
十分感谢分享
您需要登录后才可以回帖 登录 | 立即注册

本版积分规则

小黑屋|梦幻天堂·龙网

GMT+8, 2024-7-13 20:53 , Processed in 0.238455 second(s), 28 queries , Gzip On.

Powered by Discuz! X3.2

© 2001-2013 Comsenz Inc.

快速回复 返回顶部 返回列表