梦幻天堂·龙网

 找回密码
 立即注册
查看: 7778|回复: 88

[最新电影龙网转发] 【龙网转发】【韩寒沈腾2024票房高分必看】【飞驰人生2】【WebDL-2160p.MKV】【国语】

[复制链接]

2905

主题

3万

帖子

7万

积分

九鼎龙王·坛主

偶系漂漂滴龙民

Rank: 46Rank: 46Rank: 46Rank: 46Rank: 46Rank: 46

积分
76098

航子大神勋章

发表于 2024-4-30 14:17:30 | 显示全部楼层 |阅读模式
飞驰人生1的下载地址请点击这里

海报





译  名 飞驰人生2
片  名 Pegasus 2
年  代 2024
国  家 中国
类  别 剧情/喜剧/运动
语  言 汉语普通话
字  幕 中英硬字幕
评  分 7.7/10 from 515,092 users
链  接 https://movie.douban.com/subject/36369452
文件大小 4.18 GB
片  长 121 Min
导  演 韩寒 Han Han
主  演 沈腾 Teng Shen
     范丞丞 Chengcheng Fan
     尹正 Zheng Yin
     张本煜 Benyu Zhang
     孙艺洲 Yizhou Sun
     魏翔 Xiang Wei
     贾冰 Bing Jia
     郑恺 Kai Zheng
     冯绍峰 Shaofeng Feng
     黄景瑜 Johnny Huang
     刘昊然 Haoran Liu

简介

  五年前巴音布鲁克的悲壮一搏,传奇车手张驰(沈腾 饰)赢得了比赛,却输掉了一切。因铅封始终未能找到,他的成绩被组委会取消,为了谋生开办驾校又遭到网络恶意中伤,穷困潦倒,不闻一名。偶然的一天,一通电话让他重燃赛车手的热情。濒临停产的老头乐车厂厂长(贾冰 饰)是张驰的粉丝,他主动提出赞助让张驰的车队去拼搏最后一届巴音布鲁克。老头乐的员工厉小海(范丞丞 饰)天赋出众,在张驰、孙宇强(尹正 饰)、记星(张本煜 饰)和万年不及格的菜鸟驾校学员刘显德(孙艺洲 饰)联合训练下,小海成长迅速。

  只是通往胜利的道路充满艰辛与磨难,有的人过于理想,有的人太过现实……

Video
Format                         : HEVC
Format/Info                    : High Efficiency Video Coding
Format profile                 : Main@L5@Main
Codec ID                       : V_MPEGH/ISO/HEVC
Duration                       : 2 h 1 min
Bit rate                       : 4 186 kb/s
Width                          : 3 840 pixels
Height                         : 1 608 pixels
Display aspect ratio           : 2.40:1
Frame rate mode                : Constant
Frame rate                     : 24.000 FPS
Color space                    : YUV
Chroma subsampling             : 4:2:0
Bit depth                      : 8 bits
Bits/(Pixel*Frame)             : 0.028
Stream size                    : 3.54 GiB (84%)
Color range                    : Limited
Color primaries                : BT.709
Transfer characteristics       : BT.709
Matrix coefficients            : BT.709

Audio
Format                         : E-AC-3 JOC
Format/Info                    : Enhanced AC-3 with Joint Object Coding
Commercial name                : Dolby Digital Plus with Dolby Atmos
Codec ID                       : A_EAC3
Duration                       : 2 h 1 min
Bit rate mode                  : Constant
Bit rate                       : 768 kb/s
Channel(s)                     : 6 channels
Channel layout                 : L R C LFE Ls Rs
Sampling rate                  : 48.0 kHz
Frame rate                     : 31.250 FPS (1536 SPF)
Compression mode               : Lossy
Stream size                    : 665 MiB (16%)
Service kind                   : Complete Main

截图




BT种子下载
梦幻天堂·龙网(www.321n.net).飞驰人生2.torrent (22.14 KB, 下载次数: 4115)

22

主题

6万

帖子

8万

积分

天地独尊龙王

梦幻天使

Rank: 33Rank: 33Rank: 33Rank: 33Rank: 33

积分
82694
发表于 2024-4-30 14:43:08 | 显示全部楼层
非常感谢航子无私分享精彩影片!

0

主题

1634

帖子

2303

积分

升龙霸·VIP

Rank: 22Rank: 22Rank: 22Rank: 22

积分
2303

龙网VIP·金勋

发表于 2024-4-30 14:43:49 | 显示全部楼层
谢谢楼主分享

0

主题

685

帖子

1781

积分

升龙霸·VIP

Rank: 22Rank: 22Rank: 22Rank: 22

积分
1781

龙网VIP·银徽龙网VIP·银牌龙网VIP·金勋

发表于 2024-4-30 15:02:56 | 显示全部楼层
感谢航子女神,求蓝光1080P!我《飞驰人生2》《热辣滚烫》连着看的,都看的激光IMAX!《热辣滚烫》更好看!

1

主题

1538

帖子

2710

积分

赤血神龙

Rank: 20Rank: 20Rank: 20Rank: 20

积分
2710
发表于 2024-4-30 15:32:19 | 显示全部楼层
感谢航子分享

2

主题

1096

帖子

3011

积分

赤血神龙

Rank: 20Rank: 20Rank: 20Rank: 20

积分
3011
发表于 2024-4-30 16:09:15 | 显示全部楼层
谢谢楼主分享

0

主题

343

帖子

3016

积分

赤血神龙

Rank: 20Rank: 20Rank: 20Rank: 20

积分
3016
发表于 2024-4-30 16:35:08 | 显示全部楼层
感谢航子,辛苦发片!

0

主题

217

帖子

1020

积分

升龙霸·VIP

Rank: 22Rank: 22Rank: 22Rank: 22

积分
1020

龙网VIP·银牌

发表于 2024-4-30 16:47:52 | 显示全部楼层
谢谢航总

1

主题

801

帖子

2665

积分

赤血神龙

Rank: 20Rank: 20Rank: 20Rank: 20

积分
2665
QQ
发表于 2024-4-30 17:39:07 | 显示全部楼层
支持国产影片

1

主题

1508

帖子

4541

积分

赤血神龙

Rank: 20Rank: 20Rank: 20Rank: 20

积分
4541
QQ
发表于 2024-4-30 18:38:24 | 显示全部楼层
tks for share..............

1

主题

30

帖子

930

积分

龙的传人

Rank: 13Rank: 13Rank: 13

积分
930
发表于 2024-4-30 19:31:02 | 显示全部楼层
感谢航子分享,爱你。

2

主题

2万

帖子

3万

积分

神界龙王

Rank: 30Rank: 30Rank: 30Rank: 30

积分
30344
发表于 2024-4-30 19:41:34 | 显示全部楼层
谢谢航子分享
戏剧人生

0

主题

3626

帖子

5091

积分

升龙霸·VIP

Rank: 22Rank: 22Rank: 22Rank: 22

积分
5091

龙网VIP·银勋

发表于 2024-4-30 21:03:46 | 显示全部楼层
感谢航子分享!

0

主题

900

帖子

2238

积分

赤血神龙

Rank: 20Rank: 20Rank: 20Rank: 20

积分
2238
发表于 2024-4-30 21:26:46 | 显示全部楼层
感谢分享!辛苦了航子美女!

0

主题

13

帖子

47

积分

泡泡龙

Rank: 5Rank: 5Rank: 5

积分
47
发表于 2024-4-30 21:36:18 | 显示全部楼层
这么快就有啦,感谢感谢
您需要登录后才可以回帖 登录 | 立即注册

本版积分规则

小黑屋|梦幻天堂·龙网

GMT+8, 2024-7-13 20:02 , Processed in 0.247032 second(s), 27 queries , Gzip On.

Powered by Discuz! X3.2

© 2001-2013 Comsenz Inc.

快速回复 返回顶部 返回列表